Живые Пейзажи. Тропический Лес Олимпик / Living Landscapes. Olympic Rainforest (2008) BDRip [H.264/720p]

 
 Статистика раздачи 
Размер: 4.04 ГБ   |  Зарегистрирован: 21 ноя 2014, 12:31   |   .torrent скачан: 0 раз
Сидеров: 1  [ 0 байт/сек ]     Личеров: 0  [ 0 байт/сек ]  
  

Живые Пейзажи. Тропический Лес Олимпик / Living Landscapes. Olympic Rainforest (2008) BDRip [H.264/720p]

Сообщение Thistoll » 21 ноя 2014, 12:31

Живые Пейзажи. Тропический Лес Олимпик / Living Landscapes. Olympic Rainforest (2008) BDRip [H.264/720p]

Режиссер / Телекомпания: Майкл Хьюман / Studio HDenvironments
Страна: США
Год выпуска: 2008
Жанр: Видовой, релакс

Описание: Следующий фильм из серии " Living Landscapes".
Величественное спокойствие леса, косые солнечные лучи, пробивающиеся между деревьями,
навивают мистическое настроение под звуки симфонии Эрика Сати в аранжировке музыканта-виртуоза Рафаэля. Погрузитесь в окружающий мир, наполненный пением птиц, кваканьем лягушек и журчанием воды, где рыжие белки снуют по мягким мхам и лишайникам, разросшимся в лесу. Насладитесь роскошной красотой лесов самого влажного уголка Северной Америки. Первые драгоценные капли росы, скатывающиеся с листьев папоротника - красивая прелюдия к наблюдению низвергающихся водопадов.

Продолжительность: 00:59:36

Перевод: Не требуется (музыкальное сопровождение)
Субтитры: отсутствуют

Видеокодек: MPEG-4 AVC/H.264
Битрейт видео: ~7 550 Kбит/с
Размер кадра: 1280 x 720
Качество видео: BDRip [720p]
Аудио 1: DTS, 48000Hz, 5.1ch, 1 510 Kbps,
Аудио 2: Dolby AC3, 48000Hz, 5.1ch, 448 Kbps
Общее
Уникальный идентификатор : 179949049889238145000183044590028563502 (0x8760ED263A83587C8E1DD1AE6555A42E)
Полное имя : D:\Релизы\Rainforest.Olympic.BDRip.720p.mkv
Формат : Matroska
Версия формата : Version 1
Размер файла : 4,04 Гбайт
Продолжительность : 59 м.
Общий поток : 9706 Кбит/сек
Название фильма : =ALEXENERGO=
Дата кодирования : UTC 2009-04-20 04:53:55
Программа кодирования : mkvmerge v2.5.1 ('He Wasn't There') built on Feb 22 2009 18:19:47
Библиотека кодирования : libebml v0.7.7 + libmatroska v0.8.1

Видео
Идентификатор : 1
Формат : AVC
Формат/Информация : Advanced Video Codec
Профиль формата :
Параметр CABAC формата : Да
Параметр ReFrames формата : 4 кадра
Идентификатор кодека : V_MPEG4/ISO/AVC
Продолжительность : 59 м.
Битрейт : 7556 Кбит/сек
Ширина : 1280 пикселей
Высота : 720 пикселей
Соотношение сторон : 16:9
Режим частоты кадров : Постоянный
Частота кадров : 29,970 кадров/сек
Цветовое пространство : YUV
Субдискретизация насыщенности : 4:2:0
Битовая глубина : 8 бит
Тип развёртки : Прогрессивная
Бит/(Пиксели*Кадры) : 0.274
Размер потока : 3,15 Гбайт (78%)
Библиотека кодирования : x264 core 67 r1139M 1024283
Настройки программы : cabac=1 / ref=4 / deblock=1:-1:-1 / analyse=0x3:0x113 / me=umh / subme=7 / psy_rd=1.0:0.0 / mixed_ref=1 / me_range=16 / chroma_me=1 / trellis=2 / 8x8dct=1 / cqm=0 / deadzone=21,11 / chroma_qp_offset=-2 / threads=3 / nr=0 / decimate=1 / mbaff=0 / bframes=3 / b_pyramid=0 / b_adapt=2 / b_bias=0 / direct=3 / wpredb=1 / keyint=250 / keyint_min=25 / scenecut=40 / rc=crf / crf=18.5 / qcomp=0.60 / qpmin=10 / qpmax=51 / qpstep=4 / vbv_maxrate=50000 / vbv_bufsize=50000 / ip_ratio=1.40 / pb_ratio=1.30 / aq=1:1.00
Язык : English
Default : Да
Forced : Нет

Аудио #1
Идентификатор : 2
Формат : DTS
Формат/Информация : Digital Theater Systems
Режим : 16
Параметр Endianness формата : Big
Идентификатор кодека : A_DTS
Продолжительность : 59 м.
Вид битрейта : Постоянный
Битрейт : 1509 Кбит/сек
Каналы : 6 каналов
Расположение каналов : Front: L C R, Side: L R, LFE
Частота : 48,0 КГц
Битовая глубина : 16 бит
Метод сжатия : С потерями
Размер потока : 643 Мбайт (16%)
Заголовок : DTS 1536 Kbps
Язык : English
Default : Да
Forced : Нет

Аудио #2
Идентификатор : 3
Формат : AC-3
Формат/Информация : Audio Coding 3
Расширение режима : CM (complete main)
Параметр Endianness формата : Big
Идентификатор кодека : A_AC3
Продолжительность : 59 м.
Вид битрейта : Постоянный
Битрейт : 448 Кбит/сек
Каналы : 6 каналов
Расположение каналов : Front: L C R, Side: L R, LFE
Частота : 48,0 КГц
Битовая глубина : 16 бит
Метод сжатия : С потерями
Размер потока : 191 Мбайт (5%)
Заголовок : AC3 448 Kbps
Язык : English
Default : Нет
Forced : Нет
Скриншоты:




Пожалуйста, не уходите с раздачи - помогите докачать другим. Если понравился релиз - жмите кнопку "Спасибо"!

Время раздачи: 24 / 7

"Живые Пейзажи. Тропический Лес Олимпик / Living Landscapes. Olympic Rainforest" на NoNaMe Club
 
Не забывайте говорить Спасибо. Не уходите с раздачи!   
Торрент: Зарегистрирован [21 ноя 2014, 12:31] Скачать торрент
Скачать торрент
[ Размер 21 КБ / Просмотров 257 ]
Статус:
Проверен
 
.torrent скачан: 0 раз
Хэш: b12386277dde393e0b965f00c49590af1cb441ef
Размер: 4.04 ГБ (4 338 602 415 байт)
Стать Автором раздачи
 
 
Раздал: 6.67 ГБ
Скачал: 302.5 МБ
Ратио: 22.576
Сообщения: 374198
Зарегистрирован: 17 апр 2014, 11:05


  • Похожие торренты
    Ответы
    Просмотры
    Последнее сообщение

Вернуться в Relax, Видовые фильмы

Ресурс не предоставляет электронные версии произведений, а занимается лишь коллекционированием и каталогизацией ссылок, присылаемых и публикуемых на форуме нашими читателями. Если вы являетесь правообладателем какого-либо представленного материала и не желаете чтобы ссылка на него находилась в нашем каталоге, свяжитесь с нами и мы незамедлительно удалим её. Файлы для обмена на трекере предоставлены пользователями сайта, и администрация не несёт ответственности за их содержание. Просьба не заливать файлы, защищенные авторскими правами, а также файлы нелегального содержания!
cron