Pako & Frederik - Atlantic Breakers (2003) [FLAC|Lossless]<Downtempo, Progressive House, Breaks>

 
 Статистика раздачи 
Размер: 421.33 МБ   |  Зарегистрирован: 18 ноя 2014, 22:06   |   .torrent скачан: 2 раз
Сидеров: 1  [ 0 байт/сек ]     Личеров: 0  [ 0 байт/сек ]  
  

Pako & Frederik - Atlantic Breakers (2003) [FLAC|Lossless]<Downtempo, Progressive House, Breaks>

Сообщение Thistoll » 18 ноя 2014, 22:06

Pako & Frederik
Atlantic Breakers
Жанр: Downtempo, Progressive House, Breaks
Носитель: CD
Страна-производитель диска: UK
Год издания: 2003
Издатель (лейбл): GU Music
Номер по каталогу: GUMU001CD
Страна исполнителя (группы): Holland
Аудиокодек: FLAC (*.flac)
Тип рипа: tracks+.cue
Битрейт аудио: lossless
Продолжительность: 01:04:53
Наличие сканов в содержимом раздачи: да

Треклист:
01. Intro (3:44)
02. O-Group (6:17)
03. Timeflex (5:48)
04. Nasty Youth (4:24)
05. 45 Minutes (6:33)
06. Pintan Alley (6:41)
07. Manacle (4:49)
08. Systematic (5:03)
09. Lastuan (7:24)
10. Atlantic Break(er)s (6:55)
11. Make Me (7:16)
Код:
Код: Выделить всё
Exact Audio Copy V0.99 prebeta 5 from 4. May 2009

EAC extraction logfile from 26. January 2010, 18:22

Pako & Frederik / Atlantic Breakers

Used drive  : HL-DT-STDVDRAM GSA-T20L   Adapter: 0  ID: 0

Read mode               : Secure
Utilize accurate stream : Yes
Defeat audio cache      : Yes
Make use of C2 pointers : No

Read offset correction                      : 667
Overread into Lead-In and Lead-Out          : No
Fill up missing offset samples with silence : Yes
Delete leading and trailing silent blocks   : No
Null samples used in CRC calculations       : Yes
Used interface                              : Native Win32 interface for Win NT & 2000
Gap handling                                : Appended to previous track

Used output format              : User Defined Encoder
Selected bitrate                : 320 kBit/s
Quality                         : High
Add ID3 tag                     : No
Command line compressor         : C:\Program Files\Exact Audio Copy\Flac\flac.exe
Additional command line options : -V -8 -T "artist=%a" -T "title=%t" -T "album=%g" -T "date=%y" -T "tracknumber=%n" -T "genre=%m" %s

TOC of the extracted CD

     Track |   Start  |  Length  | Start sector | End sector
    ---------------------------------------------------------
        1  |  0:00.00 |  3:44.23 |         0    |    16822
        2  |  3:44.23 |  6:16.49 |     16823    |    45071
        3  | 10:00.72 |  5:47.66 |     45072    |    71162
        4  | 15:48.63 |  4:23.39 |     71163    |    90926
        5  | 20:12.27 |  6:33.12 |     90927    |   120413
        6  | 26:45.39 |  6:41.24 |    120414    |   150512
        7  | 33:26.63 |  4:48.56 |    150513    |   172168
        8  | 38:15.44 |  5:02.68 |    172169    |   194886
        9  | 43:18.37 |  7:23.62 |    194887    |   228173
       10  | 50:42.24 |  6:54.62 |    228174    |   259285
       11  | 57:37.11 |  7:16.28 |    259286    |   292013

Track  1

     Filename F:\Musikk\Album\Pako & Frederik - Atlantic Breakers (2003) [FLAC]\01 - Intro.wav

     Pre-gap length  0:00:02.00

     Peak level 97.6 %
     Track quality 100.0 %
     Test CRC 080B0677
     Copy CRC 080B0677
     Accurately ripped (confidence 7)  [EB3207F5]
     Copy OK

Track  2

     Filename F:\Musikk\Album\Pako & Frederik - Atlantic Breakers (2003) [FLAC]\02 - O-Group.wav

     Peak level 99.8 %
     Track quality 100.0 %
     Test CRC E407AE5C
     Copy CRC E407AE5C
     Accurately ripped (confidence 7)  [683A00A1]
     Copy OK

Track  3

     Filename F:\Musikk\Album\Pako & Frederik - Atlantic Breakers (2003) [FLAC]\03 - Timeflex.wav

     Peak level 99.8 %
     Track quality 100.0 %
     Test CRC 88E25422
     Copy CRC 88E25422
     Accurately ripped (confidence 7)  [7B9D5DA6]
     Copy OK

Track  4

     Filename F:\Musikk\Album\Pako & Frederik - Atlantic Breakers (2003) [FLAC]\04 - Nasty Youth.wav

     Peak level 99.8 %
     Track quality 100.0 %
     Test CRC A5A98C62
     Copy CRC A5A98C62
     Accurately ripped (confidence 7)  [A37986D8]
     Copy OK

Track  5

     Filename F:\Musikk\Album\Pako & Frederik - Atlantic Breakers (2003) [FLAC]\05 - 45 Minutes.wav

     Peak level 99.1 %
     Track quality 99.9 %
     Test CRC 469D5233
     Copy CRC 469D5233
     Accurately ripped (confidence 7)  [2AA131B7]
     Copy OK

Track  6

     Filename F:\Musikk\Album\Pako & Frederik - Atlantic Breakers (2003) [FLAC]\06 - Pintan Alley.wav

     Peak level 99.8 %
     Track quality 100.0 %
     Test CRC F3A9BB5D
     Copy CRC F3A9BB5D
     Accurately ripped (confidence 8)  [92C8AF53]
     Copy OK

Track  7

     Filename F:\Musikk\Album\Pako & Frederik - Atlantic Breakers (2003) [FLAC]\07 - Manacle.wav

     Peak level 98.7 %
     Track quality 100.0 %
     Test CRC E09B35EB
     Copy CRC E09B35EB
     Accurately ripped (confidence 5)  [A2979206]
     Copy OK

Track  8

     Filename F:\Musikk\Album\Pako & Frederik - Atlantic Breakers (2003) [FLAC]\08 - Systematic.wav

     Peak level 99.8 %
     Track quality 100.0 %
     Test CRC 87EAFEE7
     Copy CRC 87EAFEE7
     Accurately ripped (confidence 8)  [C3A611A3]
     Copy OK

Track  9

     Filename F:\Musikk\Album\Pako & Frederik - Atlantic Breakers (2003) [FLAC]\09 - Lastuan.wav

     Peak level 99.8 %
     Track quality 100.0 %
     Test CRC 60A27187
     Copy CRC 60A27187
     Accurately ripped (confidence 7)  [03822BAC]
     Copy OK

Track 10

     Filename F:\Musikk\Album\Pako & Frederik - Atlantic Breakers (2003) [FLAC]\10 - Atlantic Break(er)s.wav

     Peak level 99.5 %
     Track quality 100.0 %
     Test CRC 408C6FB7
     Copy CRC 408C6FB7
     Accurately ripped (confidence 7)  [7DFC6D3B]
     Copy OK

Track 11

     Filename F:\Musikk\Album\Pako & Frederik - Atlantic Breakers (2003) [FLAC]\11 - Make Me.wav

     Peak level 99.8 %
     Track quality 99.9 %
     Test CRC E146CE15
     Copy CRC E146CE15
     Accurately ripped (confidence 5)  [A59702B6]
     Copy OK

All tracks accurately ripped

No errors occurred

End of status report
Код:
Код: Выделить всё
-----------------------

DON'T MODIFY THIS FILE

-----------------------

PERFORMER: auCDtect Task Manager, ver. 1.6.0 RC1 build 1.6.0.1
Copyright (c) 2008-2010 y-soft. All rights reserved
http:/y-soft.org

ANALYZER: auCDtect: CD records authenticity detector, version 0.8.2
Copyright (c) 2004 Oleg Berngardt. All rights reserved.
Copyright (c) 2004 Alexander Djourik. All rights reserved.

FILE: 05 - 45 Minutes.flac
  Size: 42944301 Hash: D35C381A4DBE3867F43BE37345161A02 Accuracy: -m0
  Conclusion: CDDA 100%
  Signature: E4DD4C3D68C9CFABF90B08C26B132CEFEFF7A700
FILE: 04 - Nasty Youth.flac
  Size: 29131650 Hash: F852A9D0EBB2B67E992C4C7119027036 Accuracy: -m0
  Conclusion: CDDA 100%
  Signature: 696072076DB209E91203B3C68B68FA7221E9A3AC
FILE: 03 - Timeflex.flac
  Size: 40871265 Hash: 7D88497D6EEC911263F9D327F29318F6 Accuracy: -m0
  Conclusion: CDDA 100%
  Signature: 6603D337210B66512DD2F7E98AEE1C2ABD0F722D
FILE: 02 - O-Group.flac
  Size: 46010852 Hash: D39C01D24512EECF8CA2274DB6AFF24A Accuracy: -m0
  Conclusion: CDDA 100%
  Signature: 95779CA0455E240EBE8BA9D568D3D6855475B68D
FILE: 01 - Intro.flac
  Size: 21633114 Hash: 46481B81F593C74F2521D52C3A4D203A Accuracy: -m0
  Conclusion: CDDA 100%
  Signature: D69AE3BE75B099346B4C16E7C08261C792DCD89A
FILE: 11 - Make Me.flac
  Size: 47430537 Hash: 15BA0EAA7DD335F9C7C0E35DF17BE6DB Accuracy: -m0
  Conclusion: CDDA 99%
  Signature: 8348FA74B369C62DF5F13223CFAF0E01E69342BB
FILE: 10 - Atlantic Break(er)s.flac
  Size: 44056500 Hash: B89AACCCA0CA7115A44D3FA119673C4D Accuracy: -m0
  Conclusion: CDDA 100%
  Signature: DF5976E87070CE660B0DC6A401BE10F6D39256AB
FILE: 09 - Lastuan.flac
  Size: 52233229 Hash: FA7F27F429575F8393A4062883858350 Accuracy: -m0
  Conclusion: CDDA 99%
  Signature: 1406C21CC9CB35A26B886E4140620E48C61EB2D8
FILE: 08 - Systematic.flac
  Size: 37892385 Hash: ABC87F60164FE2CC14405D4F10E7F4D0 Accuracy: -m0
  Conclusion: CDDA 100%
  Signature: 1291D6D9E8474DFC5B54254BF60DBB5DC8A4F48E
FILE: 07 - Manacle.flac
  Size: 33620412 Hash: 5C3BA783D91114894914D43F72C50486 Accuracy: -m0
  Conclusion: CDDA 100%
  Signature: FCCC1D0D90D54E9B529F489914CE28C64649469C
FILE: 06 - Pintan Alley.flac
  Size: 45305890 Hash: 5E3C0758695D0BF2FBE4C354B38692D3 Accuracy: -m0
  Conclusion: CDDA 100%
  Signature: 899666EE698E240C3E77A525E24D819D99FBFDA4




Время раздачи: с 08:00 до 18:00
 
Не забывайте говорить Спасибо. Не уходите с раздачи!   
Торрент: Зарегистрирован [18 ноя 2014, 22:06] Скачать торрент
Скачать торрент
[ Размер 18.17 КБ / Просмотров 37 ]
Статус:
Проверен
 
.torrent скачан: 2 раз
Хэш: 369928a723785a9ac218bee889b39f368abdbf24
Размер: 421.33 МБ (441 793 290 байт)
Стать Автором раздачи
 
 
Раздал: 6.67 ГБ
Скачал: 302.5 МБ
Ратио: 22.576
Сообщения: 374198
Зарегистрирован: 17 апр 2014, 11:05


  • Похожие торренты
    Ответы
    Просмотры
    Последнее сообщение

Вернуться в House, Techno, Electro, Minimal (транзит Lossless)

Ресурс не предоставляет электронные версии произведений, а занимается лишь коллекционированием и каталогизацией ссылок, присылаемых и публикуемых на форуме нашими читателями. Если вы являетесь правообладателем какого-либо представленного материала и не желаете чтобы ссылка на него находилась в нашем каталоге, свяжитесь с нами и мы незамедлительно удалим её. Файлы для обмена на трекере предоставлены пользователями сайта, и администрация не несёт ответственности за их содержание. Просьба не заливать файлы, защищенные авторскими правами, а также файлы нелегального содержания!
cron