RD: Семейная жизнь животных [3 серии] / Family life of animals (2006) DVDRip

 
 Статистика раздачи 
Размер: 2.49 ГБ   |  Зарегистрирован: 12 ноя 2014, 18:27   |   .torrent скачан: 0 раз
Сидеров: 2  [ 0 байт/сек ]     Личеров: 1  [ 0 байт/сек ]  
  

RD: Семейная жизнь животных [3 серии] / Family life of animals (2006) DVDRip

Сообщение Satch » 12 ноя 2014, 18:27

RD: Семейная жизнь животных [3 серии] / Family life of animals (2006) DVDRip

Релиз группа: RG NNM-Club DocTV
Автор Rip'а: skorpionN

Русское название: RD: Семейная жизнь животных [3 серии]
Оригинальное название: Family life of animals
Режиссер / Телекомпания: Крис Валентини
Год выпуска: 2006
Жанр: Документальный

Продолжительность: 3 x ~ 00:57:00

Перевод: Одноголосый закадровый, профессиональный
Текст читает: Николай Дроздов

Видеокодек: Xvid
Битрейт видео: ~25.00fps 1895kbps
Размер кадра: 704x528
Качество видео: DVDRip
Аудиокодек: AC3
Битрейт аудио: 48000Hz stereo 192kbps

Описание:
Вы узнаете, как животные стараются для своего потомства с первого момента их появления на свет - как они их кормят, охраняют от опасности и учат самостоятельности. Документальный фильм в трёх частях.
#77У всех животных есть одна общая цель - завести детенышей, продолжить род и принять участие в семейной жизни. Вы увидите завораживающие ритуалы брачных игр - павлина, распускающего свой роскошный хвост, крохотного манакина, совершающего головокружительные пируэты над тропическим лесом, полынного тетерева, издающего просто неземные звуки в период токования.
Вы узнаете, что брачные игры могут быть иногда и смертельно опасными. Серенады самца лягушки тунгары привлекают также и хищников. Богомол и паук «черная вдова» рискуют быть съеденными своими же избранницами.
Вы увидите, как самцы борются за право передать свои гены новому поколению. Павиан пресекает попытки наглеца, пытающегося проникнуть в его гарем... Самец газели в ярости поддевает рогами соперника... Два морских слона сражаются за первенство, с ревом скрестив клыки.
Животные, само существование которых зависит от совместных усилий обоих родителей, часто всту¬пают в семейный союз на всю жизнь. Альбатросы присматриваются друг к другу четыре года, прежде чем обзавестись потомством, и тогда по очереди сидят на яйцах и кормят вылупившихся птенцов. Но все-таки самый удивительный отец - это морской конек. Он сам производит на свет потомство!


#77Вы узнаете, как животные стараются для своего потомства с первого момента их появления на свет - как они их кормят, охраняют от опасности и учат самостоятельности.
Осьминог может казаться нам чудищем из кошмарного сна, но на самом деле это нежнейшее существо. Мать держит детенышей в объятиях целых полгода, не выпуская их из своих щупальцев ни на секунду. И к тому времени, как они подрастут, умирает от истощения. После того как самка императорского пингвина отложит яйца, отец в одиночку высиживает их, терпя холод и голод в кромешной тьме арктической зимы.
Интересно, что черепахи откладывают яйца рядом с кладкой аллигатора, а потом наблюдают, как аллигатор осторожно переносит своих вылупившихся детенышей из гнезда, не причиняя при этом никакого вреда маленьким черепашкам. А у антилопы-гну всего пятнадцать минут на то, чтобы научить своего только что родившегося детеныша стоять на еще подгибающихся ножках, иначе он непременно погибнет.
Вы будете с волнением наблюдать за трагедией львиного прайда, когда их престарелый отец перестанет быть вожаком, и умилитесь, глядя на маленького, такого еще неловкого слоненка, окруженного заботой и любовью родителей. Вас позабавят шимпанзе, приобретающие навыки общения в кругу своей семьи.


#77Вы станете свидетелем драматической борьбы молодого поколения за свое место под солнцем. У животных, так же как и у людей, период взросления может стать самым трудным в жизни.
Белоголовый орлан пробует свои крылья под присмотром матери... Паучки пытаются плести первую шелковую паутину... Крохотные черепашки собираются вместе, чтобы пуститься в полное опасностей путешествие по пляжу и достичь наконец кромки прибоя.
Птенец альбатроса впервые пытается взлететь, а в воде уже раскрыла свою страшную пасть тигровая акула, ожидая его ошибки. Вы увидите, как белые гуся¬та, которым от роду всего шесть недель, отправляются в дальний полет, как учатся охотиться маленькие гепар¬ды, как молодые слоны борются за лидерство.
У касаток детство, в сущности, так никогда и не кончается. Они стараются держаться поближе к родителям, даже когда у них появляются свои собственные дети. Молодые кенгуру отрабатывают приемы кикбоксинга, которые потребуются им для борьбы с соперником. Самец зебры может создать семью только после того, как сразится с отцом своей избранницы и тот одобрит его бойцовские качества.
У орангутангов очень близкие отношения с матерью. Но когда у нее появляется новый отпрыск, она не может заботиться сразу о двоих, и подросший детеныш неохотно уходит из дома.


Формат : AVI
Формат/Информация : Audio Video Interleave
Размер файла : 856 Мбайт
Продолжительность : 57 м.
Общий поток : 2098 Кбит/сек
Программа кодирования : VirtualDubMod 1.5.10.3 | www.virtualdub-fr.org || (build 2550/release)
Библиотека кодирования : VirtualDubMod build 2550/release

Видео
Идентификатор : 0
Формат : MPEG-4 Visual
Профиль формата : Advanced Simple@L5
Параметр BVOP формата : 2
Параметр QPel формата : Нет
Параметр GMC формата : Без точки перехода
Параметр матрицы формата : Default (H.263)
Идентификатор кодека : XVID
Идентификатор кодека/Подсказка : XviD
Продолжительность : 57 м.
Битрейт : 1896 Кбит/сек
Ширина : 704 пикселя
Высота : 528 пикселей
Соотношение сторон : 4:3
Частота кадров : 25,000 кадров/сек
Цветовое пространство : YUV
Субдискретизация насыщенности : 4:2:0
Битовая глубина : 8 бит
Тип развёртки : Прогрессивная
Метод сжатия : С потерями
Бит/(Пиксели*Кадры) : 0.204
Размер потока : 773 Мбайт (90%)
Библиотека кодирования : XviD 1.2.1 (UTC 2008-12-04)

Аудио
Идентификатор : 1
Формат : AC-3
Формат/Информация : Audio Coding 3
Расширение режима : CM (complete main)
Параметр Endianness формата : Big
Идентификатор кодека : 2000
Продолжительность : 57 м.
Вид битрейта : Постоянный
Битрейт : 192 Кбит/сек
Каналы : 2 канала
Расположение каналов : Front: L R
Частота : 48,0 КГц
Битовая глубина : 16 бит
Метод сжатия : С потерями
Размер потока : 78,3 Мбайт (9%)
Выравнивание : Разделение по промежуткам
Продолжительность промежутка : 40 мс. (1,00 видеокадр)
Время предзагрузки промежутка : 500 мс.

Общее
Полное имя : D:\Zagruzka\Family_life_of_animals\02_Education_of_descendants.avi
Формат : AVI
Формат/Информация : Audio Video Interleave
Размер файла : 844 Мбайт
Продолжительность : 56 м.
Общий поток : 2097 Кбит/сек
Программа кодирования : VirtualDubMod 1.5.10.3 | www.virtualdub-fr.org || (build 2550/release)
Библиотека кодирования : VirtualDubMod build 2550/release

Видео
Идентификатор : 0
Формат : MPEG-4 Visual
Профиль формата : Advanced Simple@L5
Параметр BVOP формата : 2
Параметр QPel формата : Нет
Параметр GMC формата : Без точки перехода
Параметр матрицы формата : Default (H.263)
Идентификатор кодека : XVID
Идентификатор кодека/Подсказка : XviD
Продолжительность : 56 м.
Битрейт : 1895 Кбит/сек
Ширина : 704 пикселя
Высота : 528 пикселей
Соотношение сторон : 4:3
Частота кадров : 25,000 кадров/сек
Цветовое пространство : YUV
Субдискретизация насыщенности : 4:2:0
Битовая глубина : 8 бит
Тип развёртки : Прогрессивная
Метод сжатия : С потерями
Бит/(Пиксели*Кадры) : 0.204
Размер потока : 763 Мбайт (90%)
Библиотека кодирования : XviD 1.2.1 (UTC 2008-12-04)

Аудио
Идентификатор : 1
Формат : AC-3
Формат/Информация : Audio Coding 3
Расширение режима : CM (complete main)
Параметр Endianness формата : Big
Идентификатор кодека : 2000
Продолжительность : 56 м.
Вид битрейта : Постоянный
Битрейт : 192 Кбит/сек
Каналы : 2 канала
Расположение каналов : Front: L R
Частота : 48,0 КГц
Битовая глубина : 16 бит
Метод сжатия : С потерями
Размер потока : 77,3 Мбайт (9%)
Выравнивание : Разделение по промежуткам
Продолжительность промежутка : 40 мс. (1,00 видеокадр)
Время предзагрузки промежутка : 500 мс.

Общее
Полное имя : D:\Zagruzka\Family_life_of_animals\03_Difficult_steps_on_the_path_toadulthood.avi
Формат : AVI
Формат/Информация : Audio Video Interleave
Размер файла : 854 Мбайт
Продолжительность : 56 м.
Общий поток : 2097 Кбит/сек
Программа кодирования : VirtualDubMod 1.5.10.3 | www.virtualdub-fr.org || (build 2550/release)
Библиотека кодирования : VirtualDubMod build 2550/release

Видео
Идентификатор : 0
Формат : MPEG-4 Visual
Профиль формата : Advanced Simple@L5
Параметр BVOP формата : 2
Параметр QPel формата : Нет
Параметр GMC формата : Без точки перехода
Параметр матрицы формата : Default (H.263)
Идентификатор кодека : XVID
Идентификатор кодека/Подсказка : XviD
Продолжительность : 56 м.
Битрейт : 1895 Кбит/сек
Ширина : 704 пикселя
Высота : 528 пикселей
Соотношение сторон : 4:3
Частота кадров : 25,000 кадров/сек
Цветовое пространство : YUV
Субдискретизация насыщенности : 4:2:0
Битовая глубина : 8 бит
Тип развёртки : Прогрессивная
Метод сжатия : С потерями
Бит/(Пиксели*Кадры) : 0.204
Размер потока : 772 Мбайт (90%)
Библиотека кодирования : XviD 1.2.1 (UTC 2008-12-04)

Аудио
Идентификатор : 1
Формат : AC-3
Формат/Информация : Audio Coding 3
Расширение режима : CM (complete main)
Параметр Endianness формата : Big
Идентификатор кодека : 2000
Продолжительность : 56 м.
Вид битрейта : Постоянный
Битрейт : 192 Кбит/сек
Каналы : 2 канала
Расположение каналов : Front: L R
Частота : 48,0 КГц
Битовая глубина : 16 бит
Метод сжатия : С потерями
Размер потока : 78,2 Мбайт (9%)
Выравнивание : Разделение по промежуткам
Продолжительность промежутка : 40 мс. (1,00 видеокадр)
Время предзагрузки промежутка : 500 мс.
Скриншоты:




Время раздачи: 24/7 ( до первых скачавших, перебои со связью бывают,зависит от провайдера)
 
Не забывайте говорить Спасибо. Не уходите с раздачи!   
Торрент: Зарегистрирован [12 ноя 2014, 18:27] Для скачивания .torrent
необходима регистрация
Или скачать с помощью
MediaGet
Статус:
Проверен
 
.torrent скачан: 0 раз
Хэш: bfde89d52b5f593255a8e339d96a13952c7a375f
Размер: 2.49 ГБ (2 678 233 088 байт)
Стать Автором раздачи
 
Аватара пользователя
 
Раздал: 2.45 ГБ
Скачал: 15.94 МБ
Ратио: 157.696
Сообщения: 337733
Зарегистрирован: 16 янв 2012, 17:03


  • Похожие торренты
    Ответы
    Просмотры
    Последнее сообщение

Вернуться в Readers Digest

Кто сейчас на конференции

Сейчас эту тему просматривают: нет зарегистрированных пользователей и гости: 1

Ресурс не предоставляет электронные версии произведений, а занимается лишь коллекционированием и каталогизацией ссылок, присылаемых и публикуемых на форуме нашими читателями. Если вы являетесь правообладателем какого-либо представленного материала и не желаете чтобы ссылка на него находилась в нашем каталоге, свяжитесь с нами и мы незамедлительно удалим её. Файлы для обмена на трекере предоставлены пользователями сайта, и администрация не несёт ответственности за их содержание. Просьба не заливать файлы, защищенные авторскими правами, а также файлы нелегального содержания!