Леся Ярославская - стань моим мужем (2014) HDTVRip [1080p]

 
 Статистика раздачи 
Размер: 225.42 МБ   |  Зарегистрирован: 11 ноя 2014, 00:11   |   .torrent скачан: 0 раз
Сидеров: 1  [ 0 байт/сек ]     Личеров: 0  [ 0 байт/сек ]  
  

Леся Ярославская - стань моим мужем (2014) HDTVRip [1080p]

Сообщение Thistoll » 11 ноя 2014, 00:11

Леся Ярославская - стань моим мужем (2014) HDTVRip [1080p]

Исполнитель: Леся Ярославская
Год выпуска: 2014
Жанр: Pop
Продолжительность: 00:03:46

Описание: Вот только недавно все обсуждали страстный роман Владимира Яглыча и Оксаны Домниной, а теперь у Владимира в постели оказалась Леся Ярославская. Оксана Домнина вернулась к мужу Роману Костомарову, а Владимир Яглыч уже встречается с Лесей Ярославской. Правда, официально они свои отношения не комментируют, но Владимир уже принял участие в съемках клипа Леси Ярославской на песню с говорящим названием "Стань моим мужем".

Качество видео: HDTVRip
Видеокодек: MPEG-4 AVC/H.264
Битрейт видео: ~8038 Кбит/с
Размер кадра: 1920x1080 (16:9), 25,000 кадров/с
Аудиокодек: AAC, 2 ch, stereo
Битрейт аудио: 317 Кбит/с
Общее
Полное имя : Леся Ярославская - стань моим мужем.mp4
Формат : MPEG-4
Профиль формата : Base Media / Version 2
Идентификатор кодека : mp42
Размер файла : 225 Мбайт
Продолжительность : 3 м. 46 с.
Режим общего битрейта : Переменный
Общий поток : 8360 Кбит/сек
Дата кодирования : UTC 2014-10-16 10:27:02
Дата пометки : UTC 2014-10-16 10:27:04
©TIM : 00:00:00:00
©TSC : 25
©TSZ : 1

Видео
Идентификатор : 1
Формат : AVC
Формат/Информация : Advanced Video Codec
Профиль формата :
Параметр CABAC формата : Да
Параметр ReFrames формата : 3 кадра
Идентификатор кодека : avc1
Идентификатор кодека/Информация : Advanced Video Coding
Продолжительность : 3 м. 46 с.
Вид битрейта : Переменный
Битрейт : 8038 Кбит/сек
Максимальный битрейт : 12,0 Мбит/сек
Ширина : 1920 пикселей
Высота : 1080 пикселей
Соотношение сторон : 16:9
Режим частоты кадров : Постоянный
Частота кадров : 25,000 кадров/сек
Стандарт вещания : PAL
Цветовое пространство : YUV
Субдискретизация насыщенности : 4:2:0
Битовая глубина : 8 бит
Тип развёртки : Прогрессивная
Бит/(Пиксели*Кадры) : 0.155
Размер потока : 217 Мбайт (96%)
Язык : English
Дата кодирования : UTC 2014-10-16 10:27:02
Дата пометки : UTC 2014-10-16 10:27:02

Аудио
Идентификатор : 2
Формат : AAC
Формат/Информация : Advanced Audio Codec
Профиль формата : LC
Идентификатор кодека : 40
Продолжительность : 3 м. 46 с.
Продолжительность оригинала : 3 м. 46 с.
Вид битрейта : Переменный
Битрейт : 317 Кбит/сек
Максимальный битрейт : 408 Кбит/сек
Каналы : 2 канала
Расположение каналов : Front: L R
Частота : 48,0 КГц
Метод сжатия : С потерями
Размер потока : 8,56 Мбайт (4%)
Размер потока оригинала : 8,56 Мбайт (4%)
Язык : English
Дата кодирования : UTC 2014-10-16 10:27:02
Дата пометки : UTC 2014-10-16 10:27:02
Скриншоты:
 
Не забывайте говорить Спасибо. Не уходите с раздачи!   
Торрент: Зарегистрирован [11 ноя 2014, 00:11] Скачать торрент
Скачать торрент
[ Размер 18.38 КБ / Просмотров 19 ]
Статус:
Проверен
 
.torrent скачан: 0 раз
Хэш: bf956b9007596c69f6a768e5b6354dc19a74078c
Размер: 225.42 МБ (236 374 839 байт)
Стать Автором раздачи
 
 
Раздал: 6.67 ГБ
Скачал: 302.5 МБ
Ратио: 22.576
Сообщения: 374198
Зарегистрирован: 17 апр 2014, 11:05


  • Похожие торренты
    Ответы
    Просмотры
    Последнее сообщение

Вернуться в Музыкальные клипы (транзит)

Ресурс не предоставляет электронные версии произведений, а занимается лишь коллекционированием и каталогизацией ссылок, присылаемых и публикуемых на форуме нашими читателями. Если вы являетесь правообладателем какого-либо представленного материала и не желаете чтобы ссылка на него находилась в нашем каталоге, свяжитесь с нами и мы незамедлительно удалим её. Файлы для обмена на трекере предоставлены пользователями сайта, и администрация не несёт ответственности за их содержание. Просьба не заливать файлы, защищенные авторскими правами, а также файлы нелегального содержания!
cron