Ирина Нельсон и Денис Клявер - Я за тебя молюсь (2014) HDTVRip [1080p]

 
 Статистика раздачи 
Размер: 210.44 МБ   |  Зарегистрирован: 11 ноя 2014, 00:09   |   .torrent скачан: 0 раз
Сидеров: 1  [ 0 байт/сек ]     Личеров: 0  [ 0 байт/сек ]  
  

Ирина Нельсон и Денис Клявер - Я за тебя молюсь (2014) HDTVRip [1080p]

Сообщение Thistoll » 11 ноя 2014, 00:09

Ирина Нельсон и Денис Клявер - Я за тебя молюсь (2014) HDTVRip [1080p]

Исполнитель: Ирина Нельсон, Денис Клявер
Год выпуска: 2014
Жанр: Pop
Продолжительность: 00:03:33

Описание фильма:
Описание: Солистка популярной группы «Рефлекс» Ирина Нельсон совместно с экс-участником дуэта «Чай вдвоем» Денисом Клявером представили видео к совместной композиции «Я за тебя молюсь». Как и ожидалось, видео расскажет любовную историю с ночными танцами у костра, прогулками вдоль реки и по цветущим лугам, рядом с прекрасным арабским скакуном. Режиссером клипа выступил Вячеслав Тюрин, по совместительству он еще и муж певицы. Как признался Денис Клявер, вначале съемок ему было тяжело привыкнуть к тому, что играть в любовь нужно под строгим взглядом супруга Ирины. Но в итоге все получилось отлично, и зрители могут это оценить, просмотрев клип, съемки которого проходили в Подмосковье.

Качество видео: HDTVRip [1080p]
Видеокодек: MPEG-4 AVC/H.264
Битрейт видео: ~7931 Кбит/с
Размер кадра: 1920x1080 (16:9), 25,000 кадров/с
Аудиокодек: AAC, 2 ch, stereo
Битрейт аудио: 317 Кбит/с
Общее
Полное имя : Ирина Нельсон и Денис Клявер - Я за тебя молюсь.mp4
Формат : MPEG-4
Профиль формата : Base Media / Version 2
Идентификатор кодека : mp42
Размер файла : 210 Мбайт
Продолжительность : 3 м. 33 с.
Режим общего битрейта : Переменный
Общий поток : 8252 Кбит/сек
Дата кодирования : UTC 2014-10-08 09:05:51
Дата пометки : UTC 2014-10-08 09:05:53
©TIM : 00:00:00:00
©TSC : 25
©TSZ : 1

Видео
Идентификатор : 1
Формат : AVC
Формат/Информация : Advanced Video Codec
Профиль формата :
Параметр CABAC формата : Да
Параметр ReFrames формата : 3 кадра
Идентификатор кодека : avc1
Идентификатор кодека/Информация : Advanced Video Coding
Продолжительность : 3 м. 33 с.
Вид битрейта : Переменный
Битрейт : 7931 Кбит/сек
Максимальный битрейт : 12,0 Мбит/сек
Ширина : 1920 пикселей
Высота : 1080 пикселей
Соотношение сторон : 16:9
Режим частоты кадров : Постоянный
Частота кадров : 25,000 кадров/сек
Стандарт вещания : PAL
Цветовое пространство : YUV
Субдискретизация насыщенности : 4:2:0
Битовая глубина : 8 бит
Тип развёртки : Прогрессивная
Бит/(Пиксели*Кадры) : 0.153
Размер потока : 202 Мбайт (96%)
Язык : English
Дата кодирования : UTC 2014-10-08 09:05:51
Дата пометки : UTC 2014-10-08 09:05:51

Аудио
Идентификатор : 2
Формат : AAC
Формат/Информация : Advanced Audio Codec
Профиль формата : LC
Идентификатор кодека : 40
Продолжительность : 3 м. 33 с.
Продолжительность оригинала : 3 м. 33 с.
Вид битрейта : Переменный
Битрейт : 317 Кбит/сек
Максимальный битрейт : 411 Кбит/сек
Каналы : 2 канала
Расположение каналов : Front: L R
Частота : 48,0 КГц
Метод сжатия : С потерями
Размер потока : 8,09 Мбайт (4%)
Размер потока оригинала : 8,10 Мбайт (4%)
Язык : English
Дата кодирования : UTC 2014-10-08 09:05:51
Дата пометки : UTC 2014-10-08 09:05:51
Скриншоты:
 
Не забывайте говорить Спасибо. Не уходите с раздачи!   
Торрент: Зарегистрирован [11 ноя 2014, 00:09] Скачать торрент
Скачать торрент
[ Размер 17.26 КБ / Просмотров 17 ]
Статус:
Проверен
 
.torrent скачан: 0 раз
Хэш: e8dc861f326cdf162d04b78b72652e78ce64047d
Размер: 210.44 МБ (220 664 158 байт)
Стать Автором раздачи
 
 
Раздал: 6.67 ГБ
Скачал: 302.5 МБ
Ратио: 22.576
Сообщения: 374198
Зарегистрирован: 17 апр 2014, 11:05


  • Похожие торренты
    Ответы
    Просмотры
    Последнее сообщение

Вернуться в Музыкальные клипы (транзит)

Ресурс не предоставляет электронные версии произведений, а занимается лишь коллекционированием и каталогизацией ссылок, присылаемых и публикуемых на форуме нашими читателями. Если вы являетесь правообладателем какого-либо представленного материала и не желаете чтобы ссылка на него находилась в нашем каталоге, свяжитесь с нами и мы незамедлительно удалим её. Файлы для обмена на трекере предоставлены пользователями сайта, и администрация не несёт ответственности за их содержание. Просьба не заливать файлы, защищенные авторскими правами, а также файлы нелегального содержания!
cron