Принц Египта / The Prince of Egypt (1998) HDTVRip

 
 Статистика раздачи 
Размер: 747.87 МБ   |  Зарегистрирован: 10 ноя 2014, 20:06   |   .torrent скачан: 0 раз
Сидеров: 1  [ 0 байт/сек ]     Личеров: 0  [ 0 байт/сек ]  
  

Принц Египта / The Prince of Egypt (1998) HDTVRip

Сообщение Satch » 10 ноя 2014, 20:06

Принц Египта / The Prince of Egypt (1998) HDTVRip

Русское название: Принц Египта
Оригинальное название: The Prince of Egypt
Год выпуска: 1998
Производство: США
Жанр: Приключения, Семейный, История

Описание:
Эта история случилась на заре цивилизации в Древнем Египте. Стремительный и величавый Нил вынес на берег перед дворцом фараона корзину с младенцем. Могущественный правитель усыновил крошечного мальчика и дал ему имя Моисей.
Шли годы… Моисей и его брат Рамзес росли вместе. Но придет день, когда один из братьев станет владыкой величайшей империи на земле, а другой — святым… Противоборство героев навсегда изменит их судьбы и историю человечества.



Режиссер: Бренда Чэпман, Стив Хикнер, Саймон Уэллс
Персонажи: Вэл Килмер, Ральф Файнс, Мишель Пфайффер, Сандра Баллок, Джефф Голдблюм, Дэнни Гловер, Патрик Стюарт, Хелен Миррен, Стив Мартин, Мартин Шорт

Продолжительность: 01:34:40
Перевод: Дублированный
Язык субтитров: Отсутствуют

Видеокодек: Xvid
Битрейт видео: ~967 kbps avg
Размер кадра: 688x384
Качество видео: HDTVRip
Аудиокодек: MP3 2 ch
Битрейт аудио: ~128 kbps
Общее
Полное имя : D:\Торренты на раздачу\Принц Египта\The_Prince_of_Egypt.avi
Формат : AVI
Формат/Информация : Audio Video Interleave
Размер файла : 748 Мбайт
Продолжительность : 1 ч. 34 м.
Общий поток : 1104 Кбит/сек
Программа кодирования : VirtualDubMod 1.5.10.2 (build 2540/release)
Библиотека кодирования : VirtualDubMod build 2540/release

Видео
Идентификатор : 0
Формат : MPEG-4 Visual
Профиль формата : Advanced [email protected]
Параметр BVOP формата : 1
Параметр QPel формата : Нет
Параметр GMC формата : Без точки перехода
Параметр матрицы формата : Default (MPEG)
Идентификатор кодека : XVID
Идентификатор кодека/Подсказка : XviD
Продолжительность : 1 ч. 34 м.
Битрейт : 967 Кбит/сек
Ширина : 688 пикселей
Высота : 384 пикселя
Соотношение сторон : 16:9
Частота кадров : 25,000 кадров/сек
Цветовое пространство : YUV
Субдискретизация насыщенности : 4:2:0
Битовая глубина : 8 бит
Тип развёртки : Прогрессивная
Метод сжатия : С потерями
Бит/(Пиксели*Кадры) : 0.146
Размер потока : 655 Мбайт (88%)
Библиотека кодирования : XviD 1.2.1 (UTC 2008-12-04)

Аудио
Идентификатор : 1
Формат : MPEG Audio
Версия формата : Version 1
Профиль формата : Layer 3
Идентификатор кодека : 55
Идентификатор кодека/Подсказка : MP3
Продолжительность : 1 ч. 34 м.
Вид битрейта : Постоянный
Битрейт : 128 Кбит/сек
Каналы : 2 канала
Частота : 48,0 КГц
Метод сжатия : С потерями
Задержка видео : 768 мс.
Размер потока : 86,7 Мбайт (12%)
Выравнивание : Разделение по промежуткам
Продолжительность промежутка : 40 мс. (1,00 видеокадр)
Время предзагрузки промежутка : 504 мс.
Библиотека кодирования : LAME3.97
Настройки программы : -m s -V 4 -q 2 -lowpass 17 -b 128
Скриншоты:





Время раздачи: ~ С 14:00 до 03:00 (10-15 скачавших)
 
Не забывайте говорить Спасибо. Не уходите с раздачи!   
Торрент: Зарегистрирован [10 ноя 2014, 20:06] Для скачивания .torrent
необходима регистрация
Или скачать с помощью
MediaGet
Статус:
Проверен
 
.torrent скачан: 0 раз
Хэш: 568b66b3629e7deaf44dafd7949f4e638d894147
Размер: 747.87 МБ (784 193 536 байт)
Стать Автором раздачи
 
Аватара пользователя
 
Раздал: 2.45 ГБ
Скачал: 15.94 МБ
Ратио: 157.696
Сообщения: 337733
Зарегистрирован: 16 янв 2012, 17:03


  • Похожие торренты
    Ответы
    Просмотры
    Последнее сообщение

Вернуться в Зарубежные мультфильмы

Кто сейчас на конференции

Сейчас эту тему просматривают: нет зарегистрированных пользователей и гости: 1

Ресурс не предоставляет электронные версии произведений, а занимается лишь коллекционированием и каталогизацией ссылок, присылаемых и публикуемых на форуме нашими читателями. Если вы являетесь правообладателем какого-либо представленного материала и не желаете чтобы ссылка на него находилась в нашем каталоге, свяжитесь с нами и мы незамедлительно удалим её. Файлы для обмена на трекере предоставлены пользователями сайта, и администрация не несёт ответственности за их содержание. Просьба не заливать файлы, защищенные авторскими правами, а также файлы нелегального содержания!