Береговая навигация [2003, яхтинг, судовождение, DVDRip, ENG] (Видеоурок)

 
 Статистика раздачи 
Размер: 978.96 МБ   |  Зарегистрирован: 02 ноя 2014, 21:29   |   .torrent скачан: 1 раз
Сидеров: 1  [ 0 байт/сек ]     Личеров: 0  [ 0 байт/сек ]  
  

Береговая навигация [2003, яхтинг, судовождение, DVDRip, ENG] (Видеоурок)

Сообщение BitFire » 02 ноя 2014, 21:29

Береговая навигация

Тематика: яхтинг, судовождение
Тип раздаваемого материала: Видеоурок
Продолжительность: 01:42:00
Год выпуска: 2003

Язык: Английский
Перевод: Отсутствует

Описание: Береговая навигация: судовые огни, буи, правила, итд.

Качество : DVDRip
Формат: AVI
Видео кодек: DivX
Аудио кодек: MP3
Format : AVI
Format/Info : Audio Video Interleave
File size : 979 MiB
Duration : 1h 42mn
Overall bit rate : 1 330 Kbps
Writing library : VirtualDub build 32839/release

Video
ID : 0
Format : MPEG-4 Visual
Format profile : Simple@L1
Format settings, BVOP : No
Format settings, QPel : No
Format settings, GMC : No warppoints
Format settings, Matrix : Default (H.263)
Codec ID : DIVX
Codec ID/Info : Project Mayo
Codec ID/Hint : DivX 4
Duration : 1h 42mn
Bit rate : 1 190 Kbps
Width : 720 pixels
Height : 480 pixels
Display aspect ratio : 3:2
Frame rate : 29.970 fps
Standard : NTSC
Color space : YUV
Chroma subsampling : 4:2:0
Bit depth : 8 bits
Scan type : Progressive
Bits/(Pixel*Frame) : 0.115
Stream size : 876 MiB (89%)
Writing library : avc2.0.11.1110

Audio
ID : 1
Format : MPEG Audio
Format version : Version 1
Format profile : Layer 3
Mode : Joint stereo
Mode extension : MS Stereo
Codec ID : 55
Codec ID/Hint : MP3
Duration : 1h 42mn
Bit rate mode : Constant
Bit rate : 128 Kbps
Channel(s) : 2 channels
Sampling rate : 48.0 KHz
Stream size : 94.2 MiB (10%)
Alignment : Split accross interleaves
Interleave, duration : 33 ms (1.00 video frame)
Interleave, preload duration : 500 ms
Writing library : LAME3.96.1
 
Не забывайте говорить Спасибо. Не уходите с раздачи!   
Торрент: Зарегистрирован [02 ноя 2014, 21:29] Скачать торрент
Скачать торрент
[ Размер 19.66 КБ / Просмотров 104 ]
Статус:
Проверен
 
.torrent скачан: 1 раз
Хэш: 22a1521d926e26afe15bd0205c745a996d48c226
Размер: 978.96 МБ (1 026 511 002 байт)
Стать Автором раздачи
 
 
Раздал: 398.6 ГБ
Скачал: 172 МБ
Ратио: 2373.085
Сообщения: 228130
Зарегистрирован: 17 апр 2014, 15:26


  • Похожие торренты
    Ответы
    Просмотры
    Последнее сообщение

Вернуться в Видеоуроки по вождению транспортных средств

Ресурс не предоставляет электронные версии произведений, а занимается лишь коллекционированием и каталогизацией ссылок, присылаемых и публикуемых на форуме нашими читателями. Если вы являетесь правообладателем какого-либо представленного материала и не желаете чтобы ссылка на него находилась в нашем каталоге, свяжитесь с нами и мы незамедлительно удалим её. Файлы для обмена на трекере предоставлены пользователями сайта, и администрация не несёт ответственности за их содержание. Просьба не заливать файлы, защищенные авторскими правами, а также файлы нелегального содержания!
cron