Званый ужин 338 (20.10.2014-24.10.2014) WEBRip [2014, Кулинарное ТВ-шоу, WEBRip]

 
 Статистика раздачи 
Размер: 2.69 ГБ   |  Зарегистрирован: 26 окт 2014, 20:39   |   .torrent скачан: 3 раз
Сидеров: 1  [ 0 байт/сек ]     Личеров: 0  [ 0 байт/сек ]  
  

Званый ужин 338 (20.10.2014-24.10.2014) WEBRip [2014, Кулинарное ТВ-шоу, WEBRip]

Сообщение bagouser » 26 окт 2014, 20:39

Званый ужин 338 (20.10.2014-24.10.2014) WEBRip

Дата/Год выпуска: 2014
Страна: Россия
Жанр: Кулинарное ТВ-шоу
Продолжительность: 48мин/выпуск
Перевод: Не требуется
Телеканал: рен-тв
Описание: Участники программы - люди самых разных профессий, достатка, возраста, увлечений, жизненных устремлений и кулинарных пристрастий. И даже уметь хорошо готовить им совершенно не обязательно. Важно вот что: герои шоу должны быть уверены в том, что, пригласив гостей на «Званый ужин», смогут создать для них нечто большее, чем просто ужин - незабываемую атмосферу праздника, уюта и непринужденного общения.

Участники:
Элен Каминская - модель, актриса, 22 года
Александр Фирстман - развозчик пиццы, 36 лет
Магомед Сурхайханов - PR-специалист, 27 лет
Виктор Нагайцев IТ-предприниматель, 27 лет
Марина Велисевич - инструктор по плаванию

Релиз: AlexPAINter

качество: WEBRip
формат: AVI
Видео: XVID 720x400 25.00fps 2passVBR ~1400Kbps
Аудио: MP3 48000Hz 1ch 160Kbps (remaster)
Код: Выделить всё
Общее
Полное имя                               : I:\званый ужин\Званый ужин - 338\ZU338_01.avi
Формат                                   : AVI
Формат/Информация                        : Audio Video Interleave
Размер файла                             : 550 Мбайт
Продолжительность                        : 48 м.
Общий поток                              : 1600 Кбит/сек
Название фильма                          : Званый ужин 338. День 1 (2014.10.20)
Название фильма/Ссылка                   : [url=http://www.ex.ua/view/5075550]http://www.ex.ua/view/5075550[/url]
Режиссёр                                 : ©2014 WEBRip by AlexPAINter
Кодирование произвёл                     : ©2014 by AlexPAINter
Жанр                                     : развлекательный
Тема                                     : WEBRip / РЕН-ТВ / 2014.10.20
Ограничения прав                         : G / без ограничений
Дата записи                              : 2014.10.20
Программа кодирования                    : AVISynth 2.58 / VirtualDubMod 1.5.10.3
Формат оригинала/Имя                     : телепередача
Примечание                               : О программе: / Участники программы - люди самых разных профессий, достатка, возраста, увлечений, жизненных устремлений и кулинарных пристрастий. И даже уметь хорошо готовить им совершенно не обязательно. Важно вот что: герои шоу должны быть уверены в том, что, пригласив гостей на «Званый ужин», смогут создать для них нечто большее, чем просто ужин - незабываемую атмосферу праздника, уюта и непринужденного общения. /  / Выпущено: РЕН-ТВ, Россия / Продолжительность: 48мин/выпуск / Перевод: Оригинал / Релиз: AlexPAINter /  /  / WEBRip AVI / Формат: AVI / Качество: WEBRip / Видео: XVID 704x528 25.00fps 2passVBR ~1400Kbps / Звук: MP3 48000Hz 1ch 160Kbps (remaster) / Размер: 550Mb/выпуск /  /  /  / Участники: / Элен Каминская - модель, актриса, 22 года / Александр Фирстман - развозчик пиццы, 36 лет / Магомед Сурхайханов - PR-специалист, 27 лет / Виктор Нагайцев IТ-предприниматель, 27 лет / Марина Велисевич - инструктор по плаванию

Видео
Идентификатор                            : 0
Формат                                   : MPEG-4 Visual
Профиль формата                          : Advanced Simple@L5
Параметр BVOP формата                    : 1
Параметр QPel формата                    : Нет
Параметр GMC формата                     : Без точки перехода
Параметр матрицы формата                 : Default (H.263)
Идентификатор кодека                     : XVID
Идентификатор кодека/Подсказка           : XviD
Продолжительность                        : 48 м.
Битрейт                                  : 1431 Кбит/сек
Ширина                                   : 720 пикселей
Высота                                   : 400 пикселей
Соотношение сторон                       : 16:9
Частота кадров                           : 25,000 кадров/сек
Цветовое пространство                    : YUV
Субдискретизация насыщенности            : 4:2:0
Битовая глубина                          : 8 бит
Тип развёртки                            : Прогрессивная
Метод сжатия                             : С потерями
Бит/(Пиксели*Кадры)                      : 0.199
Размер потока                            : 492 Мбайт (89%)
Библиотека кодирования                   : XviD 1.2.1 (UTC 2008-12-04)

Аудио
Идентификатор                            : 1
Формат                                   : MPEG Audio
Версия формата                           : Version 1
Профиль формата                          : Layer 3
Идентификатор кодека                     : 55
Идентификатор кодека/Подсказка           : MP3
Продолжительность                        : 48 м.
Вид битрейта                             : Постоянный
Битрейт                                  : 160 Кбит/сек
Каналы                                   : 1 канал
Частота                                  : 44,1 КГц
Метод сжатия                             : С потерями
Задержка видео                           : 80 мс.
Размер потока                            : 55,0 Мбайт (10%)
Выравнивание                             : Разделение по промежуткам
Продолжительность промежутка             : 40  мс. (1,00 видеокадр)
Время предзагрузки промежутка            : 500  мс.
Библиотека кодирования                   : LAME3.99r
Настройки программы                      : -m m -V 4 -q 0 -lowpass 20.5 -b 160
Язык                                     : Русский
 
Не забывайте говорить Спасибо. Не уходите с раздачи!   
Торрент: Зарегистрирован [26 окт 2014, 20:39] Скачать торрент
Скачать торрент
[ Размер 14.36 КБ / Просмотров 236 ]
Статус:
Проверен
 
.torrent скачан: 3 раз
Хэш: ef797084aebe6cb92ff7422507f67a38523caa41
Размер: 2.69 ГБ (2 886 014 140 байт)
Стать Автором раздачи
 
Аватара пользователя
 
Раздал: 3.77 ТБ
Скачал: 406.3 ГБ
Ратио: 9.496
Сообщения: 468710
Зарегистрирован: 20 янв 2011, 21:15


  • Похожие торренты
    Ответы
    Просмотры
    Последнее сообщение

Вернуться в Званый ужин

Ресурс не предоставляет электронные версии произведений, а занимается лишь коллекционированием и каталогизацией ссылок, присылаемых и публикуемых на форуме нашими читателями. Если вы являетесь правообладателем какого-либо представленного материала и не желаете чтобы ссылка на него находилась в нашем каталоге, свяжитесь с нами и мы незамедлительно удалим её. Файлы для обмена на трекере предоставлены пользователями сайта, и администрация не несёт ответственности за их содержание. Просьба не заливать файлы, защищенные авторскими правами, а также файлы нелегального содержания!
cron