Просто кровь / Одурманенные кровью / Blood Simple (Джоэл Коэн / Joel Coen, Итэн Коэн / Ethan Coen) [1984, США, триллер, драма, криминал, BDRip-AVC] [Director's Cut] MVO (R5) + AVO (Ю. Сербин) + Sub Rus, Eng + Original Eng

 
 Статистика раздачи 
Размер: 2.18 ГБ   |  Зарегистрирован: 26 окт 2014, 13:06   |   .torrent скачан: 0 раз
Сидеров: 1  [ 0 байт/сек ]     Личеров: 0  [ 0 байт/сек ]  
  

Просто кровь / Одурманенные кровью / Blood Simple (Джоэл Коэн / Joel Coen, Итэн Коэн / Ethan Coen) [1984, США, триллер, драма, криминал, BDRip-AVC] [Director's Cut] MVO (R5) + AVO (Ю. Сербин) + Sub Rus, Eng + Original Eng

Сообщение Thelver1947 » 26 окт 2014, 13:06

Просто кровь / Одурманенные кровью / Blood Simple
Director's Cut

Страна: США
Жанр: триллер, драма, криминал
Год выпуска: 1984
Продолжительность: 01:35:38

Перевод: Профессиональный (многоголосый закадровый) R5
Перевод 2: Авторский (одноголосый закадровый) Ю. Сербин
Cубтитры: Rus, Eng
Оригинальная аудиодорожка: английский

Режиссер: Джоэл Коэн / Joel Coen, Итэн Коэн / Ethan Coen

В ролях:
Фрэнсис МакДорманд / Frances McDormand (Abby)
М. Эммет Уолш / M. Emmet Walsh (Private Detective Loren Visser)
Джон Гец (Ray), Дэн Хедайя (Julian Marty), Сэмм-Арт Уильямс (Meurice), Дебора Ньюманн (Debra), Raquel Gavia (Landlady), Ван Брукс (Man from Lubbock), Сеньор Марко (Mr. Garcia), Уилльям Кример (Old Cracker), Лорен Бивенс (Strip Bar Exhorter), Боб МакАдамс (Strip Bar Senator)
Описание
Молодая женщина Эбби не удовлетворена своим браком с Марти, грубым владельцем бара из Техаса. Между Эбби и барменом Рэем вспыхивает страсть. Обманутый муж догадывается об измене и нанимает частного сыщика, чтобы выследить, а затем убить любовников.
Но циничный и коварный детектив поступает несколько иначе, что влечет за собой волну диких и кровавых недоразумений...
Сэмпл

IMDb: 7.70 (56 361)

Качество видео: BDRip-AVC Blu-ray Disc 1080p
Формат видео: MKV

Видео: AVC 2435 Kbps 1008 x 546 (1.846) 23.976 fps
Аудио: AC-3 384 Kbps 6 channels, 48.0 KHz Rus MVO
Аудио 2: AC-3 224 Kbps 2 channels, 48.0 KHz AVO Ю. Сербин
Аудио 3: AC-3 224 Kbps 2 channels, 48.0 KHz Eng
Формат субтитров: softsub (SRT)
raw [info]: 1008x546p 1:1 @ 2500000/104271 fps (cfr)
x264 [info]: using SAR=1/1
x264 [info]: using cpu capabilities: MMX2 SSE2Fast SSSE3 SSE4.2 AVX
x264 [info]: profile High, level 4.1

x264 [info]: frame I:1065 Avg QP:15.69 size: 71739
x264 [info]: frame P:25614 Avg QP:18.82 size: 23410
x264 [info]: frame B:110904 Avg QP:20.38 size: 9645
x264 [info]: consecutive B-frames: 1.5% 1.4% 4.2% 8.7% 14.8% 46.2% 9.7% 5.6% 7.9%
x264 [info]: mb I I16..4: 5.6% 82.5% 11.9%
x264 [info]: mb P I16..4: 0.5% 6.6% 0.8% P16..4: 34.6% 40.4% 12.6% 1.1% 0.1% skip: 3.4%
x264 [info]: mb B I16..4: 0.1% 0.9% 0.1% B16..8: 41.5% 20.8% 3.0% direct: 4.8% skip:28.9% L0:50.5% L1:43.6% BI: 6.0%
x264 [info]: 8x8 transform intra:84.5% inter:64.5%
x264 [info]: direct mvs spatial:98.2% temporal:1.8%
x264 [info]: coded y,uvDC,uvAC intra: 89.0% 83.2% 53.9% inter: 30.4% 22.3% 3.0%
x264 [info]: i16 v,h,dc,p: 44% 10% 5% 41%
x264 [info]: i8 v,h,dc,ddl,ddr,vr,hd,vl,hu: 13% 7% 6% 10% 15% 13% 13% 11% 12%
x264 [info]: i4 v,h,dc,ddl,ddr,vr,hd,vl,hu: 30% 6% 4% 7% 12% 12% 11% 9% 9%
x264 [info]: i8c dc,h,v,p: 37% 26% 20% 17%
x264 [info]: Weighted P-Frames: Y:6.0% UV:2.5%
x264 [info]: ref P L0: 37.4% 8.6% 19.1% 7.5% 7.0% 4.9% 4.8% 2.4% 2.4% 1.9% 2.0% 1.7% 0.2% 0.0%
x264 [info]: ref B L0: 51.6% 16.3% 10.2% 5.7% 4.4% 3.8% 3.1% 1.9% 1.7% 1.0% 0.3%
x264 [info]: ref B L1: 86.9% 13.1%
x264 [info]: kb/s:2433.68

x264 [total]: encoded 137583 frames, 8.90 fps, 2433.68 kb/s
Format : Matroska
Format version : Version 4 / Version 2
File size : 2.18 GiB
Duration : 1h 35mn
Overall bit rate : 3 268 Kbps
Encoded date : UTC 2014-07-17 21:47:11
Writing application : mkvmerge v6.7.0 ('Back to the Ground') 32bit built on Jan 8 2014 15:03:17
Writing library : libebml v1.3.0 + libmatroska v1.4.1

Video
ID : 1
Format : AVC
Format/Info : Advanced Video Codec
Format profile : High@L4.1
Format settings, CABAC : Yes
Format settings, ReFrames : 12 frames
Codec ID : V_MPEG4/ISO/AVC
Duration : 1h 35mn
Bit rate : 2 435 Kbps
Width : 1 008 pixels
Height : 546 pixels
Display aspect ratio : 1.85:1
Frame rate mode : Constant
Frame rate : 23.976 fps
Color space : YUV
Chroma subsampling : 4:2:0
Bit depth : 8 bits
Scan type : Progressive
Bits/(Pixel*Frame) : 0.185
Stream size : 1.58 GiB (73%)
Writing library : x264 core 140 r2377 1ca7bb9
Encoding settings : cabac=1 / ref=12 / deblock=1:-2:-1 / analyse=0x3:0x133 / me=umh / subme=11 / psy=1 / psy_rd=1.00:0.05 / mixed_ref=1 / me_range=32 / chroma_me=1 / trellis=2 / 8x8dct=1 / cqm=0 / deadzone=21,11 / fast_pskip=0 / chroma_qp_offset=-3 / threads=12 / lookahead_threads=2 / sliced_threads=0 / nr=0 / decimate=1 / interlaced=0 / bluray_compat=0 / constrained_intra=0 / bframes=8 / b_pyramid=2 / b_adapt=2 / b_bias=0 / direct=3 / weightb=1 / open_gop=0 / weightp=2 / keyint=250 / keyint_min=23 / scenecut=40 / intra_refresh=0 / rc_lookahead=60 / rc=2pass / mbtree=1 / bitrate=2435 / ratetol=1.0 / qcomp=0.60 / qpmin=0 / qpmax=69 / qpstep=4 / cplxblur=20.0 / qblur=0.5 / ip_ratio=1.40 / aq=1:1.00
Language : English
Default : Yes
Forced : No

Audio #1
ID : 2
Format : AC-3
Format/Info : Audio Coding 3
Mode extension : CM (complete main)
Format settings, Endianness : Big
Codec ID : A_AC3
Duration : 1h 35mn
Bit rate mode : Constant
Bit rate : 384 Kbps
Channel(s) : 6 channels
Channel positions : Front: L C R, Side: L R, LFE
Sampling rate : 48.0 KHz
Bit depth : 16 bits
Compression mode : Lossy
Stream size : 263 MiB (12%)
Title : MVO R5
Language : Russian
Default : Yes
Forced : No

Audio #2
ID : 3
Format : AC-3
Format/Info : Audio Coding 3
Mode extension : CM (complete main)
Format settings, Endianness : Big
Codec ID : A_AC3
Duration : 1h 35mn
Bit rate mode : Constant
Bit rate : 224 Kbps
Channel(s) : 2 channels
Channel positions : Front: L R
Sampling rate : 48.0 KHz
Bit depth : 16 bits
Compression mode : Lossy
Stream size : 153 MiB (7%)
Title : AVO U.Serbin
Language : Russian
Default : No
Forced : No

Audio #3
ID : 4
Format : AC-3
Format/Info : Audio Coding 3
Mode extension : CM (complete main)
Format settings, Endianness : Big
Codec ID : A_AC3
Duration : 1h 35mn
Bit rate mode : Constant
Bit rate : 224 Kbps
Channel(s) : 2 channels
Channel positions : Front: L R
Sampling rate : 48.0 KHz
Bit depth : 16 bits
Compression mode : Lossy
Stream size : 153 MiB (7%)
Title : Original
Language : English
Default : No
Forced : No

Text #1
ID : 5
Format : UTF-8
Codec ID : S_TEXT/UTF8
Codec ID/Info : UTF-8 Plain Text
Language : Russian
Default : No
Forced : No

Text #2
ID : 6
Format : UTF-8
Codec ID : S_TEXT/UTF8
Codec ID/Info : UTF-8 Plain Text
Title : d0bРµr.mР°NN
Language : Russian
Default : No
Forced : No

Text #3
ID : 7
Format : UTF-8
Codec ID : S_TEXT/UTF8
Codec ID/Info : UTF-8 Plain Text
Title : SDH
Language : English
Default : No
Forced : No

Menu
00:00:00.000 : en:00:00:00.000
00:06:06.408 : en:00:06:06.408
00:09:26.608 : en:00:09:26.608
00:11:48.875 : en:00:11:48.875
00:14:30.703 : en:00:14:30.703
00:17:57.785 : en:00:17:57.785
00:22:04.532 : en:00:22:04.532
00:24:55.327 : en:00:24:55.327
00:30:14.646 : en:00:30:14.646
00:36:13.922 : en:00:36:13.922
00:42:44.812 : en:00:42:44.812
00:46:49.640 : en:00:46:49.640
00:49:33.554 : en:00:49:33.554
00:55:26.740 : en:00:55:26.740
00:59:05.250 : en:00:59:05.250
01:03:45.447 : en:01:03:45.447
01:08:39.490 : en:01:08:39.490
01:11:16.481 : en:01:11:16.481
01:14:13.449 : en:01:14:13.449
01:17:24.807 : en:01:17:24.807
01:20:23.485 : en:01:20:23.485
01:22:13.762 : en:01:22:13.762
01:26:29.184 : en:01:26:29.184
01:33:00.366 : en:01:33:00.366
 
Не забывайте говорить Спасибо. Не уходите с раздачи!   
Торрент: Зарегистрирован [26 окт 2014, 13:06] Для скачивания .torrent
необходима регистрация
Или скачать с помощью
MediaGet
Статус:
Проверен
 
.torrent скачан: 0 раз
Хэш: da4ef60f491a33fdf25d7f29e653d44d889eeff9
Размер: 2.18 ГБ (2 344 227 641 байт)
Стать Автором раздачи
 
 
Раздал: 690.52 МБ
Скачал: 0 байт
Ратио: Seed.
Сообщения: 218210
Зарегистрирован: 14 июн 2014, 21:11


  • Похожие торренты
    Ответы
    Просмотры
    Последнее сообщение

Вернуться в Зарубежные фильмы до 1990 года

Ресурс не предоставляет электронные версии произведений, а занимается лишь коллекционированием и каталогизацией ссылок, присылаемых и публикуемых на форуме нашими читателями. Если вы являетесь правообладателем какого-либо представленного материала и не желаете чтобы ссылка на него находилась в нашем каталоге, свяжитесь с нами и мы незамедлительно удалим её. Файлы для обмена на трекере предоставлены пользователями сайта, и администрация не несёт ответственности за их содержание. Просьба не заливать файлы, защищенные авторскими правами, а также файлы нелегального содержания!
cron