Золотой Ключик Россия - РТР (Александр Игудин)[Новогодний мюзикл, музыкальная передача, 2009 г., TV-Rip] эфир 31.12.09

 
 Статистика раздачи 
Размер: 5.91 ГБ   |  Зарегистрирован: 23 окт 2014, 07:40   |   .torrent скачан: 1 раз
Сидеров: 1  [ 0 байт/сек ]     Личеров: 0  [ 0 байт/сек ]  
  

Золотой Ключик Россия - РТР (Александр Игудин)[Новогодний мюзикл, музыкальная передача, 2009 г., TV-Rip] эфир 31.12.09

Сообщение Thelver1947 » 23 окт 2014, 07:40

Золотой Ключик Россия - РТР [Новогодний мюзикл, музыкальная передача, 2009 г., TV-Rip]

Год выпуска: 2009
Страна: Россия
Жанр: Музыкальная сказка, комедия
Продолжительность: 01:44:24
Перевод: Не требуется
Русские субтитры: нет

Режиссер: Александр Игудин

Описание: Коварный продюсер Карабас-Барабас заключил с куклами кабальный контракт. Все работают на него, света белого не видя. Марионетки пытаются бороться за свои кукольные права. И тут у Карабаса появляется парочка конкурентов — лиса Алиса и кот Базилио, которые намерены переманить его артистов к себе.

В ролях: Анна Семенович (Барби-Маша), Юрий Гальцев (Буратино), Ксения Собчак (Мальвина), Филипп Киркоров (пудель Артемон), Николай Фоменко (Карабас-Барабас), Елена Воробей (лиса Алиса), Юрий Стоянов (кот Базилио), Михаил Боярский (папа Карло), Сосо Павлиашвили (Джузеппе), Николай Басков (Пьеро), Валерия, Борис Моисеев и Дима Билан (заезжие гастролеры), Ефим Шифрин (Дуремар), "Новые русские бабки" (Черепахи Тортилы), Пьер Нарцисс (хозяин ночного клуба "Три пескаря")

качество: TVRip
формат: MKV
Видео: MPEG4 Video (H264) 1024x576 (1117:576) 25fps
Аудио: Dolby AC3 48000Hz stereo 192 kbps
General
Unique ID : 225734818747771894134935079972939232239 (0xA9D2F1D750F8A187AD99F8F263B7F3EF)
Complete name : C:\Users\Алексей\Desktop\Золотой Ключик_2009 (РТР).mkv
Format : Matroska
Format version : Version 4 / Version 2
File size : 5.91 GiB
Duration : 1h 44mn
Overall bit rate mode : Variable
Overall bit rate : 8 098 Kbps
Encoded date : UTC 2013-07-01 13:49:17
Writing application : mkvmerge v6.2.0 ('Promised Land') built on Apr 28 2013 12:22:01
Writing library : libebml v1.3.0 + libmatroska v1.4.0

Video
ID : 1
Format : AVC
Format/Info : Advanced Video Codec
Format profile : High@L4.1
Format settings, CABAC : Yes
Format settings, ReFrames : 3 frames
Codec ID : V_MPEG4/ISO/AVC
Duration : 1h 44mn
Bit rate mode : Variable
Bit rate : 7 745 Kbps
Maximum bit rate : 8 000 Kbps
Width : 1 024 pixels
Height : 576 pixels
Display aspect ratio : 1.939
Frame rate mode : Constant
Frame rate : 25.000 fps
Standard : NTSC
Color space : YUV
Chroma subsampling : 4:2:0
Bit depth : 8 bits
Scan type : MBAFF
Bits/(Pixel*Frame) : 0.525
Stream size : 5.65 GiB (96%)
Title : BDGold
Writing library : x264 core 114
Encoding settings : cabac=1 / ref=3 / deblock=1:0:0 / analyse=0x3:0x113 / me=hex / subme=7 / psy=1 / psy_rd=1.00:0.00 / mixed_ref=1 / me_range=16 / chroma_me=1 / trellis=1 / 8x8dct=1 / cqm=2 / deadzone=21,11 / fast_pskip=1 / chroma_qp_offset=-2 / threads=12 / sliced_threads=0 / slices=1 / nr=0 / decimate=1 / interlaced=tff / constrained_intra=0 / bframes=3 / b_pyramid=0 / b_adapt=1 / b_bias=0 / direct=1 / weightb=1 / open_gop=0 / weightp=0 / keyint=250 / keyint_min=25 / scenecut=40 / intra_refresh=0 / rc_lookahead=40 / rc=crf / mbtree=1 / crf=1.0 / qcomp=0.60 / qpmin=3 / qpmax=69 / qpstep=4 / vbv_maxrate=8000 / vbv_bufsize=7995 / crf_max=51.0 / nal_hrd=vbr / ip_ratio=1.40 / aq=1:1.00
Language : Russian
Default : Yes
Forced : No
Color primaries : BT.709
Transfer characteristics : BT.709
Matrix coefficients : BT.709

Audio
ID : 2
Format : AC-3
Format/Info : Audio Coding 3
Mode extension : CM (complete main)
Format settings, Endianness : Big
Codec ID : A_AC3
Duration : 1h 44mn
Bit rate mode : Constant
Bit rate : 192 Kbps
Channel(s) : 2 channels
Channel positions : Front: L R
Sampling rate : 48.0 KHz
Bit depth : 16 bits
Compression mode : Lossy
Stream size : 143 MiB (2%)
Title : AC3 2.0 @ 192 Kbps
Language : Russian
Default : Yes
Forced : No
 
Не забывайте говорить Спасибо. Не уходите с раздачи!   
Торрент: Зарегистрирован [23 окт 2014, 07:40] Скачать торрент
Скачать торрент
[ Размер 30.1 КБ / Просмотров 11 ]
Статус:
Проверен
 
.torrent скачан: 1 раз
Хэш: 191f75f40f94bd39095ae568f02120229602d829
Размер: 5.91 ГБ (6 340 611 255 байт)
Стать Автором раздачи
 
 
Раздал: 690.52 МБ
Скачал: 0 байт
Ратио: Seed.
Сообщения: 218210
Зарегистрирован: 14 июн 2014, 21:11


  • Похожие торренты
    Ответы
    Просмотры
    Последнее сообщение

Вернуться в Развлекательные телепередачи и шоу, приколы и юмор

Ресурс не предоставляет электронные версии произведений, а занимается лишь коллекционированием и каталогизацией ссылок, присылаемых и публикуемых на форуме нашими читателями. Если вы являетесь правообладателем какого-либо представленного материала и не желаете чтобы ссылка на него находилась в нашем каталоге, свяжитесь с нами и мы незамедлительно удалим её. Файлы для обмена на трекере предоставлены пользователями сайта, и администрация не несёт ответственности за их содержание. Просьба не заливать файлы, защищенные авторскими правами, а также файлы нелегального содержания!
cron