Хорошие Шутки. Сезон 7. Выпуск 2 [2012, Юмор, SATRip-AVC]

 
 Статистика раздачи 
Размер: 901.89 МБ   |  Зарегистрирован: 22 окт 2014, 16:36   |   .torrent скачан: 0 раз
Сидеров: 1  [ 0 байт/сек ]     Личеров: 0  [ 0 байт/сек ]  
  

Хорошие Шутки. Сезон 7. Выпуск 2 [2012, Юмор, SATRip-AVC]

Сообщение Satch » 22 окт 2014, 16:36

Хорошие Шутки. Сезон 7. Выпуск 2.
Страна: Россия
Жанр: Юмор
Дата выхода в эфир: 25.05.2012
Продолжительность: 01:11:59
Перевод: Не требуется
Русские субтитры: нет

Режиссер: Елена Калиберда
Ведущие: Татьяна Лазарева, Михаил Шац, Александр Пушной

Описание: Возвращение мега-популярной юмористической программы!
Легендарные ведущие Татьяна Лазарева, Михаил Шац и Александр Пушной собираются вместе и устраивают настоящие "юмористические бои без правил"! Неожиданные конкурсы, искрометные импровизации и, конечно, всенародно любимый АПОЖ!!! Звезды театра, кино и шоу-бизнеса приходят в гости к ведущим, чтобы на глазах у всей страны поучаствовать в дурацких конкурсах и от души повеселиться!

Доп. информация: Играют: Михаил Полицеймако, Полина Гагарина, Юрий Аскаров, Аслан Бежоев, Филипп Бледный, Егор Сальников

Качество: SATRip-AVC

Контейнер: MP4
Видео кодек: AVC
Аудио кодек: AAC
Видео: 704x464 (3:2), 25.000 fps, MPEG-4/AVC, ~1685Kbps, 0.20 bit/pixel
Аудио: 44.1 kHz, AAC-LC, 2 ch, ~89Kbps
Скриншоты
MediaInfo
Код:
General
Complete name : Good.Jokes.s07e02.2012.SATRip-AVC.mp4
Format : MPEG-4
Format profile : Base Media
Codec ID : isom
File size : 902 MiB
Duration : 1h 11mn
Overall bit rate mode : Variable
Overall bit rate : 1 752 Kbps
Encoded date : UTC 2012-05-26 10:39:14
Tagged date : UTC 2012-05-26 10:39:14
Writing application : My MP4Box GUI 0.5.6.0

Video
ID : 1
Format : AVC
Format/Info : Advanced Video Codec
Format profile : [email protected]
Format settings, CABAC : Yes
Format settings, ReFrames : 10 frames
Codec ID : avc1
Codec ID/Info : Advanced Video Coding
Duration : 1h 11mn
Duration_LastFrame : 40ms
Bit rate : 1 658 Kbps
Maximum bit rate : 5 841 Kbps
Width : 704 pixels
Height : 464 pixels
Display aspect ratio : 3:2
Frame rate mode : Constant
Frame rate : 25.000 fps
Color space : YUV
Chroma subsampling : 4:2:0
Bit depth : 8 bits
Scan type : Progressive
Bits/(Pixel*Frame) : 0.203
Stream size : 854 MiB (95%)
Title : Imported with GPAC 0.4.6-DEV (internal rev. 5)
Writing library : x264 core 125 r2200kMod 999b753
Encoding settings : cabac=1 / ref=10 / deblock=1:0:0 / analyse=0x3:0x113 / me=umh / subme=9 / psy=1 / fade_compensate=0.00 / psy_rd=1.00:0.00 / mixed_ref=1 / me_range=16 / chroma_me=1 / trellis=2 / 8x8dct=1 / cqm=0 / deadzone=21,11 / fast_pskip=0 / chroma_qp_offset=-2 / threads=9 / lookahead_threads=1 / sliced_threads=0 / nr=0 / decimate=1 / interlaced=0 / bluray_compat=0 / constrained_intra=0 / bframes=8 / b_pyramid=2 / b_adapt=2 / b_bias=0 / direct=1 / weightb=1 / open_gop=0 / weightp=2 / keyint=250 / keyint_min=25 / scenecut=40 / intra_refresh=0 / rc_lookahead=40 / rc=crf / mbtree=0 / crf=21.0000 / qcomp=0.65 / qpmin=0 / qpmax=69 / qpstep=4 / vbv_maxrate=14000 / vbv_bufsize=14000 / crf_max=0.0 / nal_hrd=none / ip_ratio=1.40 / pb_ratio=1.30 / aq=1:1.00
Language : Russian
Encoded date : UTC 2012-05-26 10:39:14
Tagged date : UTC 2012-05-26 10:39:24
Color primaries : BT.470-6 System B, BT.470-6 System G, BT.601-6 625, BT.1358 625, BT.1700 625 PAL, BT.1700 625 SECAM
Matrix coefficients : BT.470-6 System B, BT.470-6 System G, BT.601-6 625, BT.1358 625, BT.1700 625 PAL, BT.1700 625 SECAM, IEC 61966-2-4 601

Audio
ID : 2
Format : AAC
Format/Info : Advanced Audio Codec
Format profile : LC
Codec ID : 40
Duration : 1h 11mn
Bit rate mode : Variable
Bit rate : 89.3 Kbps
Maximum bit rate : 107 Kbps
Channel(s) : 2 channels
Channel positions : Front: L R
Sampling rate : 44.1 KHz
Compression mode : Lossy
Stream size : 46.0 MiB (5%)
Language : Russian
Encoded date : UTC 2012-05-26 10:39:23
Tagged date : UTC 2012-05-26 10:39:24
 
Не забывайте говорить Спасибо. Не уходите с раздачи!   
Торрент: Зарегистрирован [22 окт 2014, 16:36] Скачать торрент
Скачать торрент
[ Размер 18.4 КБ / Просмотров 254 ]
Статус:
Проверен
 
.torrent скачан: 0 раз
Хэш: 8e3b69e1045a083bde6c701d12f1d9c238ce7b76
Размер: 901.89 МБ (945 695 744 байт)
Стать Автором раздачи
 
Аватара пользователя
 
Раздал: 2.45 ГБ
Скачал: 15.94 МБ
Ратио: 157.696
Сообщения: 337733
Зарегистрирован: 16 янв 2012, 17:03


  • Похожие торренты
    Ответы
    Просмотры
    Последнее сообщение

Вернуться в Хорошие Шутки

Ресурс не предоставляет электронные версии произведений, а занимается лишь коллекционированием и каталогизацией ссылок, присылаемых и публикуемых на форуме нашими читателями. Если вы являетесь правообладателем какого-либо представленного материала и не желаете чтобы ссылка на него находилась в нашем каталоге, свяжитесь с нами и мы незамедлительно удалим её. Файлы для обмена на трекере предоставлены пользователями сайта, и администрация не несёт ответственности за их содержание. Просьба не заливать файлы, защищенные авторскими правами, а также файлы нелегального содержания!
cron