Телепередача о Японии и аниме "Банзай" [Познавательная передача, TVRip][Gameland.tv][Выпуски: 1-33][2008-2009 г.]

 
 Статистика раздачи 
Размер: 8.53 ГБ   |  Зарегистрирован: 10 сен 2014, 13:51   |   .torrent скачан: 0 раз
Сидеров: 1  [ 0 байт/сек ]     Личеров: 0  [ 0 байт/сек ]  
  

Телепередача о Японии и аниме "Банзай" [Познавательная передача, TVRip][Gameland.tv][Выпуски: 1-33][2008-2009 г.]

Сообщение PetaByte » 10 сен 2014, 13:51

Телепередача о Японии и аниме "Банзай"

Год выпуска: 2008 г.
Продолжительность: 33*25 мин
Описание: Познавательная программа об аниме и современной японской поп-культуре. Сериалы и комиксы, новости и история, режиссеры и художники, релизы и фестивали, музыка и косплей. 1 раз в неделю. Ведущая – Кигури
Продолжительность: 25 минут
Источник: канал Gameland TV (НТВ+)

Формат видео: AVI
Видео: MPEG-4 Visual, 640x480 пикс,1 304 Kbps
Аудио: MPEG Audio Layer 3, 2 channels 48.0 KHz
1

General
Format : Flash Video
File size : 115 MiB
Duration : 26mn 0s
Overall bit rate : 616 Kbps

Video
Format : Sorenson Spark
Codec ID : 2
Duration : 25mn 59s
Bit rate : 487 Kbps
Width : 640 pixels
Height : 480 pixels
Display aspect ratio : 4:3
Frame rate mode : Constant
Frame rate : 1 000.000 fps
Bit depth : 8 bits
Bits/(Pixel*Frame) : 0.002
Stream size : 90.6 MiB (79%)

Audio
Format : MPEG Audio
Format version : Version 1
Format profile : Layer 3
Codec ID : 2
Codec ID/Hint : MP3
Duration : 26mn 0s
Bit rate mode : Constant
Bit rate : 96.0 Kbps
Channel(s) : 2 channels
Sampling rate : 44.1 KHz
Compression mode : Lossy
Stream size : 17.9 MiB (16%)
Writing library : LAME3.97

2-33
General
Format : AVI
Format/Info : Audio Video Interleave
Duration : 25mn 13s
Overall bit rate mode : Variable
Overall bit rate : 1 441 Kbps

Video
ID : 0
Format : MPEG-4 Visual
Format settings, BVOP : 1
Format settings, QPel : No
Format settings, GMC : No warppoints
Format settings, Matrix : Default (H.263)
Muxing mode : Packed bitstream
Codec ID : DX50
Codec ID/Hint : DivX 5
Duration : 25mn 13s
Bit rate : 1 304 Kbps
Width : 640 pixels
Height : 480 pixels
Display aspect ratio : 4:3
Frame rate : 25.000 fps
Color space : YUV
Chroma subsampling : 4:2:0
Bit depth : 8 bits
Scan type : Progressive
Compression mode : Lossy
Bits/(Pixel*Frame) : 0.170
Stream size : 235 MiB (90%)
Writing library : DivX 6.8.2 (UTC 2008-05-17)

Audio
ID : 1
Format : MPEG Audio
Format version : Version 1
Format profile : Layer 3
Mode : Joint stereo
Mode extension : MS Stereo
Codec ID : 55
Codec ID/Hint : MP3
Duration : 25mn 13s
Bit rate mode : Variable
Bit rate : 124 Kbps
Nominal bit rate : 144 Kbps
Channel(s) : 2 channels
Sampling rate : 48.0 KHz
Compression mode : Lossy
Stream size : 22.4 MiB (9%)
Alignment : Aligned on interleaves
Interleave, duration : 24 ms (0.60 video frame)
Interleave, preload duration : 509 ms
Выпуск 15
- School Rumble
- Claymore
- Birdy the Mighty Decode
- Новости
- Roujin Z
- Minna-yatteruka
- Японское сакэ
- группа SMAP

Выпуск 16
- Amatsuki
- Majin Tantei Nogami Neuro
- Sunshine Sketch
- Doraemon
- Новости
- О Японии
- Dare mo Shiranai
- певица Natsumi Abe

Выпуск 31
Премьерный показ: 11 июня
Обзор аниме-новинок: «Трудности первой любви», Ресторан «Райский уголок». Аниме классика: «Безответственный капитан Тайлор [ТВ]». Новости: аэрография по мотивам древней японской и китайской мифологии, дыни в форме сердца от фермеров из префектуры Кумамото, коршуны на острове Авадзи, DVD переиздание The Machine Girl. Кино: «Банзай Режиссер!». Клипы Alice Nine, Vamps, Nightmare.

Выпуск 32
Премьерный показ: 28 мая 08:20, 14:20, 20:20, 02:20
Обзор сериалов: Таютама: Божественный поцелуй, Летняя буря. Аниме-классика: Ай - девyшка с кассеты. Новости: набирают популярность экодома и вело-такси; powerrangers – команда токийских полицейских демонстрирует как надо бороться с преступностью. C 29 апреля в Японии началась «Золотая неделя», являющаяся символом скорого прихода лета и всеобщего благоденствия. Кино: Искусство выживать на 5 с плюсом.

Выпуск 33
Премьерный показ: 18 июня 08:20, 14:20, 20:20, 02:20
Обзор сериалов: Eden of The East, Saki, Only Yesterday. Новости: японская компания C.S.T. Entertainment запустила сервиc Otakuma, созданный для поиска пар по интересам. Японский производитель Primastea приступил к продаже аниме под названием Isshoni Training (Тренировка с Хинако) - первой в мире анимационной методике тренировки мыщц перед телевизором. Японское правительство запустило проект по созданию национального «Храма аниме», посвященного аниме, манге и видеоиграм. Кино: Коидзона. Музыка: SID.
P S Рип из Калужской локалки.
 
Не забывайте говорить Спасибо. Не уходите с раздачи!   
Торрент: Зарегистрирован [10 сен 2014, 13:51] Скачать торрент
Скачать торрент
[ Размер 23.8 КБ / Просмотров 21 ]
Статус:
Проверен
 
.torrent скачан: 0 раз
Хэш: e77fdbc468b9f223585839e85095a8f5bf25b309
Размер: 8.53 ГБ (9 163 404 697 байт)
Стать Автором раздачи
 
 
Раздал: 10 ГБ
Скачал: 8 МБ
Ратио: 1280.000
Сообщения: 234240
Зарегистрирован: 22 фев 2013, 11:10


Re: Телепередача о Японии и аниме "Банзай" [Познавательная передача, TVRip][Gameland.tv][Выпуски: 1-33][2008-2009 г.]

Сообщение bussedo » 21 фев 2019, 05:18

РАЗДАЧА РАБОТАЕТ ИЛИ НЕТ? :)
 
Раздал: 203.92 ГБ
Скачал: 55.95 ГБ
Ратио: 3.645
Сообщения: 69
Зарегистрирован: 26 авг 2016, 11:05


  • Похожие торренты
    Ответы
    Просмотры
    Последнее сообщение

Вернуться в AMV и др. ролики

Ресурс не предоставляет электронные версии произведений, а занимается лишь коллекционированием и каталогизацией ссылок, присылаемых и публикуемых на форуме нашими читателями. Если вы являетесь правообладателем какого-либо представленного материала и не желаете чтобы ссылка на него находилась в нашем каталоге, свяжитесь с нами и мы незамедлительно удалим её. Файлы для обмена на трекере предоставлены пользователями сайта, и администрация не несёт ответственности за их содержание. Просьба не заливать файлы, защищенные авторскими правами, а также файлы нелегального содержания!
cron