(Soundtrack) Принц Египта / The Prince Of Egypt: Nashville - 1998, FLAC (tracks+.cue), lossless

 
 Статистика раздачи 
Размер: 451.64 МБ   |  Зарегистрирован: 12 авг 2014, 20:35   |   .torrent скачан: 1 раз
Сидеров: 1  [ 0 байт/сек ]     Личеров: 0  [ 0 байт/сек ]  
  

(Soundtrack) Принц Египта / The Prince Of Egypt: Nashville - 1998, FLAC (tracks+.cue), lossless

Сообщение Thelver1947 » 12 авг 2014, 20:35

Принц Египта / The Prince Of Egypt: Nashville
Жанр: Soundtrack
Год выпуска диска: 1998
Страна-производитель диска: USA
Издатель (лейбл): DreamWorks
Номер по каталогу
: DRMD-50045
Аудиокодек: FLAC (*.flac)
Тип рипа: tracks+.cue
Битрейт аудио: lossless
Продолжительность: 01:11:06
Источник: what.cd / mlapaglia
Наличие сканов в содержимом раздачи: нет
1. Freedom / Wynonna
2. Make It Through / Randy Travis & Linda Davis
3. I Give You To His Heart / Alison Krauss
4. Heartbreak Of Hope / Steven Curtis Chapman
5. Milk And Honey / Pam Tillis
6. Once In Awhile / Vince Gill
7. Walk In Glory / Mindy McCready
8. Somewhere Down The Road / Faith Hill
9. Please Be The One / Reba
10. Slavery, Deliverance And Faith / Clint Black
11. Godspeed / Beth Nielson Chapman
12. The Voice / Alabama
13. You Are My Light / Gary Chapman
14. The Moving Of The Mountain / Mac McAnally
15. I Will Be There For You / Jessica Andrews
16. I Can't Be A Slave / Toby Keith
17. Could It Be Me / Charlie Daniels
Код: Выделить всё
Exact Audio Copy V0.99 prebeta 4 from 23. January 2008

EAC extraction logfile from 13. January 2009, 1:08

Various Artists / Prince of Egypt (Nashville)

Used drive  : TSSTcorpCD/DVDW SH-S183L   Adapter: 2  ID: 0

Read mode               : Secure
Utilize accurate stream : Yes
Defeat audio cache      : Yes
Make use of C2 pointers : No

Read offset correction                      : 6
Overread into Lead-In and Lead-Out          : No
Fill up missing offset samples with silence : Yes
Delete leading and trailing silent blocks   : No
Null samples used in CRC calculations       : Yes
Used interface                              : Native Win32 interface for Win NT & 2000
Gap handling                                : Appended to previous track

Used output format              : User Defined Encoder
Selected bitrate                : 128 kBit/s
Quality                         : High
Add ID3 tag                     : No
Command line compressor         : C:\Program Files\Exact Audio Copy\Flac\flac.exe
Additional command line options : -V -8 -T "artist=%a" -T "title=%t" -T "album=%g" -T "date=%y" -T "tracknumber=%n" -T "genre=%m" %s

TOC of the extracted CD

     Track |   Start  |  Length  | Start sector | End sector
    ---------------------------------------------------------
        1  |  0:00.00 |  4:41.15 |         0    |    21089
        2  |  4:41.15 |  3:57.47 |     21090    |    38911
        3  |  8:38.62 |  4:31.55 |     38912    |    59291
        4  | 13:10.42 |  4:46.35 |     59292    |    80776
        5  | 17:57.02 |  4:00.25 |     80777    |    98801
        6  | 21:57.27 |  3:38.08 |     98802    |   115159
        7  | 25:35.35 |  4:06.52 |    115160    |   133661
        8  | 29:42.12 |  5:38.60 |    133662    |   159071
        9  | 35:20.72 |  3:09.65 |    159072    |   173311
       10  | 38:30.62 |  4:29.38 |    173312    |   193524
       11  | 43:00.25 |  3:15.40 |    193525    |   208189
       12  | 46:15.65 |  4:22.50 |    208190    |   227889
       13  | 50:38.40 |  4:49.10 |    227890    |   249574
       14  | 55:27.50 |  3:45.47 |    249575    |   266496
       15  | 59:13.22 |  3:21.00 |    266497    |   281571
       16  | 62:34.22 |  3:22.35 |    281572    |   296756
       17  | 65:56.57 |  5:08.33 |    296757    |   319889

Track  1

     Filename C:\windows\profiles\mlapaglia\Desktop\Various Artists - Prince of Egypt (Nashville)\01 - Freedom.wav

     Pre-gap length  0:00:02.00

     Peak level 99.9 %
     Track quality 100.0 %
     Test CRC 121BF106
     Copy CRC 121BF106
     Accurately ripped (confidence 2)  [D81B25E2]
     Copy OK

Track  2

     Filename C:\windows\profiles\mlapaglia\Desktop\Various Artists - Prince of Egypt (Nashville)\02 - Make It Through.wav

     Pre-gap length  0:00:00.33

     Peak level 98.1 %
     Track quality 100.0 %
     Test CRC 3F970860
     Copy CRC 3F970860
     Accurately ripped (confidence 2)  [33E108ED]
     Copy OK

Track  3

     Filename C:\windows\profiles\mlapaglia\Desktop\Various Artists - Prince of Egypt (Nashville)\03 - I Give You To His Heart.wav

     Pre-gap length  0:00:01.22

     Peak level 99.9 %
     Track quality 100.0 %
     Test CRC DAAC7560
     Copy CRC DAAC7560
     Accurately ripped (confidence 2)  [5FFE6937]
     Copy OK

Track  4

     Filename C:\windows\profiles\mlapaglia\Desktop\Various Artists - Prince of Egypt (Nashville)\04 - Heartbeat Of Hope.wav

     Pre-gap length  0:00:02.02

     Peak level 99.9 %
     Track quality 100.0 %
     Test CRC F740AF64
     Copy CRC F740AF64
     Accurately ripped (confidence 2)  [5A60B3A1]
     Copy OK

Track  5

     Filename C:\windows\profiles\mlapaglia\Desktop\Various Artists - Prince of Egypt (Nashville)\05 - Milk And Honey.wav

     Pre-gap length  0:00:02.26

     Peak level 99.9 %
     Track quality 100.0 %
     Test CRC 74408287
     Copy CRC 74408287
     Accurately ripped (confidence 2)  [A47D3318]
     Copy OK

Track  6

     Filename C:\windows\profiles\mlapaglia\Desktop\Various Artists - Prince of Egypt (Nashville)\06 - Once In Awhile.wav

     Pre-gap length  0:00:00.40

     Peak level 99.3 %
     Track quality 100.0 %
     Test CRC 32AF7BDC
     Copy CRC 32AF7BDC
     Accurately ripped (confidence 2)  [3F0549F1]
     Copy OK

Track  7

     Filename C:\windows\profiles\mlapaglia\Desktop\Various Artists - Prince of Egypt (Nashville)\07 - Walk In Glory.wav

     Pre-gap length  0:00:02.06

     Peak level 99.9 %
     Track quality 99.9 %
     Test CRC F2727E41
     Copy CRC F2727E41
     Accurately ripped (confidence 2)  [CD6D5D9B]
     Copy OK

Track  8

     Filename C:\windows\profiles\mlapaglia\Desktop\Various Artists - Prince of Egypt (Nashville)\08 - Somewhere Down The Road.wav

     Peak level 98.8 %
     Track quality 100.0 %
     Test CRC 000DFE63
     Copy CRC 000DFE63
     Accurately ripped (confidence 2)  [CA8FADAC]
     Copy OK

Track  9

     Filename C:\windows\profiles\mlapaglia\Desktop\Various Artists - Prince of Egypt (Nashville)\09 - Please Be The One.wav

     Pre-gap length  0:00:00.33

     Peak level 87.4 %
     Track quality 100.0 %
     Test CRC 98F743A8
     Copy CRC 98F743A8
     Accurately ripped (confidence 2)  [B41AA901]
     Copy OK

Track 10

     Filename C:\windows\profiles\mlapaglia\Desktop\Various Artists - Prince of Egypt (Nashville)\10 - Slavery, Deliverance And Faith.wav

     Pre-gap length  0:00:00.76

     Peak level 99.9 %
     Track quality 100.0 %
     Test CRC 1C0271E3
     Copy CRC 1C0271E3
     Accurately ripped (confidence 2)  [2EBDF66B]
     Copy OK

Track 11

     Filename C:\windows\profiles\mlapaglia\Desktop\Various Artists - Prince of Egypt (Nashville)\11 - Godspeed.wav

     Pre-gap length  0:00:01.17

     Peak level 99.9 %
     Track quality 100.0 %
     Test CRC 299D9932
     Copy CRC 299D9932
     Accurately ripped (confidence 2)  [EE567688]
     Copy OK

Track 12

     Filename C:\windows\profiles\mlapaglia\Desktop\Various Artists - Prince of Egypt (Nashville)\12 - The Voice.wav

     Peak level 99.9 %
     Track quality 99.9 %
     Test CRC 8E6CA27E
     Copy CRC 8E6CA27E
     Accurately ripped (confidence 2)  [4655D07B]
     Copy OK

Track 13

     Filename C:\windows\profiles\mlapaglia\Desktop\Various Artists - Prince of Egypt (Nashville)\13 - You Are My Light.wav

     Pre-gap length  0:00:01.57

     Peak level 99.9 %
     Track quality 100.0 %
     Test CRC 2AA47E64
     Copy CRC 2AA47E64
     Accurately ripped (confidence 2)  [E2BEF533]
     Copy OK

Track 14

     Filename C:\windows\profiles\mlapaglia\Desktop\Various Artists - Prince of Egypt (Nashville)\14 - The Moving Of The Mountain.wav

     Pre-gap length  0:00:01.60

     Peak level 99.9 %
     Track quality 100.0 %
     Test CRC 1E77394C
     Copy CRC 1E77394C
     Accurately ripped (confidence 2)  [4C275412]
     Copy OK

Track 15

     Filename C:\windows\profiles\mlapaglia\Desktop\Various Artists - Prince of Egypt (Nashville)\15 - I Will Be There For You.wav

     Pre-gap length  0:00:01.33

     Peak level 99.9 %
     Track quality 100.0 %
     Test CRC F36C4DE9
     Copy CRC F36C4DE9
     Accurately ripped (confidence 2)  [BA0971B2]
     Copy OK

Track 16

     Filename C:\windows\profiles\mlapaglia\Desktop\Various Artists - Prince of Egypt (Nashville)\16 - I Can't Be A Slave.wav

     Pre-gap length  0:00:01.33

     Peak level 100.0 %
     Track quality 100.0 %
     Test CRC 30C82BF9
     Copy CRC 30C82BF9
     Accurately ripped (confidence 2)  [C76BBF18]
     Copy OK

Track 17

     Filename C:\windows\profiles\mlapaglia\Desktop\Various Artists - Prince of Egypt (Nashville)\17 - Could It Be Me.wav

     Pre-gap length  0:00:01.36

     Peak level 93.7 %
     Track quality 100.0 %
     Test CRC F8AB8086
     Copy CRC F8AB8086
     Accurately ripped (confidence 2)  [87E58D8A]
     Copy OK

All tracks accurately ripped

No errors occurred

End of status report
Код: Выделить всё
REM GENRE Country
REM DATE 1998
REM DISCID FA10A911
REM COMMENT "ExactAudioCopy v0.99pb4"
FILE "01 - Freedom.wav" WAVE
  TRACK 01 AUDIO
    ISRC H2<K19804501
    INDEX 01 00:00:00
  TRACK 02 AUDIO
    ISRC H2<K19804502
    INDEX 00 04:40:65
FILE "02 - Make It Through.wav" WAVE
    INDEX 01 00:00:00
  TRACK 03 AUDIO
    ISRC H2<K19804503
    INDEX 00 03:56:30
FILE "03 - I Give You To His Heart.wav" WAVE
    INDEX 01 00:00:00
  TRACK 04 AUDIO
    ISRC H2<K19804504
    INDEX 00 04:29:53
FILE "04 - Heartbeat Of Hope.wav" WAVE
    INDEX 01 00:00:00
  TRACK 05 AUDIO
    ISRC H2<K19804505
    INDEX 00 04:44:15
FILE "05 - Milk And Honey.wav" WAVE
    INDEX 01 00:00:00
  TRACK 06 AUDIO
    ISRC H2<K19804506
    INDEX 00 03:59:70
FILE "06 - Once In Awhile.wav" WAVE
    INDEX 01 00:00:00
  TRACK 07 AUDIO
    ISRC H2<K19804507
    INDEX 00 03:36:03
FILE "07 - Walk In Glory.wav" WAVE
    INDEX 01 00:00:00
FILE "08 - Somewhere Down The Road.wav" WAVE
  TRACK 08 AUDIO
    ISRC H2<K19804508
    INDEX 01 00:00:00
  TRACK 09 AUDIO
    ISRC H2<K19804509
    INDEX 00 05:38:35
FILE "09 - Please Be The One.wav" WAVE
    INDEX 01 00:00:00
  TRACK 10 AUDIO
    ISRC H2<K19804510
    INDEX 00 03:09:08
FILE "10 - Slavery, Deliverance And Faith.wav" WAVE
    INDEX 01 00:00:00
  TRACK 11 AUDIO
    ISRC H2<K19804511
    INDEX 00 04:28:25
FILE "11 - Godspeed.wav" WAVE
    INDEX 01 00:00:00
FILE "12 - The Voice.wav" WAVE
  TRACK 12 AUDIO
    ISRC H2<K19804512
    INDEX 01 00:00:00
  TRACK 13 AUDIO
    ISRC H2<K19804513
    INDEX 00 04:21:07
FILE "13 - You Are My Light.wav" WAVE
    INDEX 01 00:00:00
  TRACK 14 AUDIO
    ISRC H2<K19804514
    INDEX 00 04:47:40
FILE "14 - The Moving Of The Mountain.wav" WAVE
    INDEX 01 00:00:00
  TRACK 15 AUDIO
    ISRC H2<K19804515
    INDEX 00 03:44:22
FILE "15 - I Will Be There For You.wav" WAVE
    INDEX 01 00:00:00
  TRACK 16 AUDIO
    ISRC H2<K19804516
    INDEX 00 03:19:50
FILE "16 - I Can't Be A Slave.wav" WAVE
    INDEX 01 00:00:00
  TRACK 17 AUDIO
    ISRC H2<K19804517
    INDEX 00 03:21:08
FILE "17 - Could It Be Me.wav" WAVE
    INDEX 01 00:00:00
 
Не забывайте говорить Спасибо. Не уходите с раздачи!   
Торрент: Зарегистрирован [12 авг 2014, 20:35] Для скачивания .torrent
необходима регистрация
Или скачать с помощью
MediaGet
Статус:
Проверен
 
.torrent скачан: 1 раз
Хэш: 1d7509d94f85f810fffe6e29e7e2c49825014488
Размер: 451.64 МБ (473 575 308 байт)
Стать Автором раздачи
 
 
Раздал: 690.52 МБ
Скачал: 0 байт
Ратио: Seed.
Сообщения: 218210
Зарегистрирован: 14 июн 2014, 21:11


  • Похожие торренты
    Ответы
    Просмотры
    Последнее сообщение

Вернуться в Саундтреки к зарубежным фильмам (lossless)

Кто сейчас на конференции

Сейчас эту тему просматривают: нет зарегистрированных пользователей и гости: 1

Ресурс не предоставляет электронные версии произведений, а занимается лишь коллекционированием и каталогизацией ссылок, присылаемых и публикуемых на форуме нашими читателями. Если вы являетесь правообладателем какого-либо представленного материала и не желаете чтобы ссылка на него находилась в нашем каталоге, свяжитесь с нами и мы незамедлительно удалим её. Файлы для обмена на трекере предоставлены пользователями сайта, и администрация не несёт ответственности за их содержание. Просьба не заливать файлы, защищенные авторскими правами, а также файлы нелегального содержания!